Welcome Guest ( Log In | Register )

Объявления

* gmail.com упорно продолжает считать почту с нас "unsolicited" и отбивает в том числе и письма активации, поэтому просьба использовать альтернативные почтовые ящики.
------------
* gmail.com continues reject all mail from us as "unsolicited" (activation mails too) therefore please use alternate mail servers.
> Morbus Dei - Death Created By Man (2022), Black Metal
post Dec 7 2022, 01:11:47
Post #1

Правь статус, ####!111
**************
Group: Металариец
Posts: 8,799
Releases: 197
From: HELL
On Forums: 17 years 7 months
Thanks: 30516 time(s)
Uruguay


(IMG:http://metalarea.org/images/audiocovers/2022_Dec/acov_tid373447_thumb.jpg)

*Artist: Morbus Dei
*Album: Death Created By Man
*Year: 2022
*Genre: Black Metal
*Country: Germany (IMG:http://metalarea.org/forum/style_images/flags/Germany.png)
*Format: mp3@CBR320kbps
*Size: 58MB

Tracklist:
1. Terrorist 02:53
2. Blood Shot Eyes 02:53
3. The Deaf and the Blind 03:25
4. Südland schwarzmetall 02:47
5. Bloodlust 03:01
6. Pandemic Blood 03:05
7. Slawa ukrajini 03:56
8. Death Created by Man 03:08
******************************
Total playing time: 25:08

Technical info
(IMG:http://metalarea.org/images/spectrogram/2022_Dec/e39bfe4291f29a15cc1b2e19b4bfbe46.png)
Input File: 08 - Death Created By Man.mp3
Channels : 2
Sample Rate : 44100
Precision : 16-bit
Duration : 00:03:08.00 = 8290800 samples = 14100 CDDA sectors
File Size : 7.63M
Bit Rate : 325k
Sample Encoding: MPEG audio (layer I, II or III)
Comments :
Title=Death Created By Man
Artist=Morbus Dei
Album=Death Created By Man
Tracknumber=8
Year=2022-09-15
Genre=Metal



Register


Go to the top of the page
  Insert nick Quick quote
+Quote Post
 
Start new topic
Replies (1 - 5)
post Dec 7 2022, 13:50:47
Post #2

Литр
*
Group: Подсевший
Posts: 54
Releases: 0
On Forums: 12 years 3 months
Thanks: 96 time(s)
Hungary




Go to the top of the page
  Insert nick Quick quote
+Quote Post
post Dec 7 2022, 19:52:45
Post #3

Pulling the trigger I m feeling so free
**************
Group: Металариец
Posts: 2,907
Releases: 78
From: Technical Death из 90-х
On Forums: 13 years 10 months
Thanks: 8939 time(s)
Unknown


Без откровений, но слушается с большим удовольствием!

(IMG:style_emoticons/default/true_black.gif)


Thanks:
Go to the top of the page
  Insert nick Quick quote
+Quote Post
post Dec 7 2022, 21:11:20
Post #4

Шесть Литров
******
Group: Металариец
Posts: 584
Releases: 0
On Forums: 15 years 4 months
Thanks: 446 time(s)
Brazil


ЦИТАТА(frostdomain @ Dec 7 2022, 03:11:47) *
7. Slawa ukrajini 03:56

(IMG:style_emoticons/default/pray.gif)


Thanks:
Go to the top of the page
  Insert nick Quick quote
+Quote Post
post Dec 7 2022, 22:05:04
Post #5

А воин шепчет в ответ
*****
Group: Металариец
Posts: 493
Releases: 0
On Forums: 6 years 3 months
Thanks: 179 time(s)
Saint Helena


ЦИТАТА(nsk2008 @ Dec 7 2022, 21:11:20) *
Ненуачто. Фашисты-сатанисты поют про это самое


Go to the top of the page
  Insert nick Quick quote
+Quote Post
post Dec 8 2022, 17:18:00
Post #6

Азъ есн Хаос
***********
Group: Металариец
Posts: 1,697
Releases: 162
From: Россия Москва
On Forums: 17 years 4 months
Thanks: 1830 time(s)
Russian Federation


Nokturnal Mortum - Україна - Вот слава Украине "здорового человека". Хотя тут она с маленькой, может не с проста.


Thanks:
Go to the top of the page
  Insert nick Quick quote
+Quote Post

Reply to this topicStart new topic
2 User(s) are reading this topic (2 Guests and 0 Anonymous Users)
0 Members:

 



- Lo-Fi Version Support form
Copyrights and abuse reports form
Time is now: 24th May 2024 - 19:51:42