Welcome Guest ( Log In | Register )

> The Furor - Head Full Of Hell (2022), Blackened Death Metal (D)
post Dec 12 2022, 13:41:41
Post #1

Правь статус, ####!111
**************
Group: Металариец
Posts: 35,117
Releases: 26118
From: Г.Харьков
On Forums: 11 years 9 months
Thanks: 562139 time(s)
Ukraine


(IMG:https://metalarea.org/images/audiocovers/2022_Dec/acov_tid373722_thumb.jpg)

*Artist: The Furor
*Album: Head Full Of Hell
*Year: 2022
*Genre: Blackened Death Metal
*Country: Australia (IMG:https://metalarea.org/forum/style_images/flags/Australia.png)
*Format: mp3@CBR320kbps
*Size: 96MB

Tracklist:
01. Haywire Decree
02. Doomed Dawn Dominion
03. Abominable Bombardment
04. War Upon The Flesh
05. Brutal Funeral
06. Maul Till Death
07. Steelswarm
08. Reaper Of Mankind
******************************
Total playing time: 41:25




Extended info
Disaster Drums, Vocals (2002-2010, 2011-present), Guitars, Bass (2011-present)
See also: Bloodlust, Depravity, Devouror, Impiety, Mhorgl, Pathogen, ex-Dybbuk, ex-Malignant Monster, ex-Militant Mass, ex-Pagan, ex-Shrapnel, ex-Psychonaut, ex-Earth Rot (live), ex-Nervecell (live), ex-Choke (live)
Warlock Guitars (2002-2006, 2014-present)
See also: ex-Samain, ex-Magan, ex-Nazgul (Aus)


Technical info
(IMG:https://metalarea.org/images/spectrogram/2022_Dec/91bc4b983d2cb2925e153d5eba93dc5f.png)
Input File: THE FUROR - Head Full Of Hell - 07 Steelswarm.mp3
Channels : 2
Sample Rate : 44100
Precision : 16-bit
Duration : 00:05:42.28 = 15094328 samples = 25670.6 CDDA sectors
File Size : 13.9M
Bit Rate : 326k
Sample Encoding: MPEG audio (layer I, II or III)
Comments :
Title=Steelswarm
Artist=THE FUROR
Album=Head Full Of Hell
Tracknumber=7
Year=2022



Register


Go to the top of the page
  Insert nick Quick quote
+Quote Post
 
Start new topic
Replies (1 - 2)
post Dec 13 2022, 00:11:12
Post #2

Правь статус, ####!111
**************
Group: Металариец
Posts: 35,117
Releases: 26118
From: Г.Харьков
On Forums: 11 years 9 months
Thanks: 562139 time(s)
Ukraine


FLAC (Tracks) 336 mb
Register


Thanks:
Go to the top of the page
  Insert nick Quick quote
+Quote Post
post Sep 11 2023, 16:31:35
Post #3

Group: Подсевший
Posts: 13
Releases: 0
On Forums: 9 years 8 months
Thanks: 0 time(s)
France


please, re-upload (IMG:style_emoticons/default/6.gif)
Go to the top of the page
  Insert nick Quick quote
+Quote Post

Reply to this topicStart new topic
1 User(s) are reading this topic (1 Guests and 0 Anonymous Users)
0 Members:

 



- Lo-Fi Version Support form
Copyrights and abuse reports form
Time is now: 3rd March 2024 - 06:04:37