Welcome Guest ( Log In | Register )

Объявления

* gmail.com упорно продолжает считать почту с нас "unsolicited" и отбивает в том числе и письма активации, поэтому просьба использовать альтернативные почтовые ящики.
------------
* gmail.com continues reject all mail from us as "unsolicited" (activation mails too) therefore please use alternate mail servers.
> Slayer - Darkness Reigns (Live 1992) [live] (2020), Thrash Metal (D)
post Dec 14 2022, 16:16:13
Post #1

Serial Uploader
Group Icon
Group: V.I.P
Posts: 42,601
Releases: 40667
From: Lithuania
On Forums: 15 years 11 months
Thanks: 521335 time(s)
Lithuania


(IMG:https://metalarea.org/images/audiocovers/2022_Dec/acov_tid373815_thumb.jpg)

*Artist: Slayer
*Album: Darkness Reigns (Live 1992) [live]
*Year: 2020
*Genre: Thrash Metal
*Country: United States (IMG:https://metalarea.org/forum/style_images/flags/United%20States.png)
*Format: mp3@CBR320kbps
*Size: 103MB

Tracklist:
1. Hell Awaits 06:12
2. Antichrist 02:46
3. South of Heaven 04:22
4. Silent Scream 03:27
5. Dead Skin Mask 05:00
6. Seasons in the Abyss 06:27
7. War Ensemble 05:26
8. Mandatory Suicide 04:21
9. Raining Blood / Angel of Death 07:08
******************************
Total playing time: 45:09

(IMG:https://metalarea.org/images/myspace.png)



(IMG:https://metalarea.org/images/youtube.png)

Extended info
Exclusive for Metalarea.org


Technical info
(IMG:https://metalarea.org/images/spectrogram/2022_Dec/5015eb5f1e186b24a435c5f3891f0f8a.png)
Input File: 03. South of Heaven.mp3
Channels : 2
Sample Rate : 44100
Precision : 16-bit
Duration : 00:04:22.57 = 11579381 samples = 19692.8 CDDA sectors
File Size : 10.5M
Bit Rate : 321k
Sample Encoding: MPEG audio (layer I, II or III)
Comments :
Title=South of Heaven
Artist=Slayer
Album=Darkness Reigns (Live 1992)
Tracknumber=3
Year=2020



Register


Go to the top of the page
  Insert nick Quick quote
+Quote Post
 
Start new topic
Replies (1 - 5)
post Jan 6 2023, 13:26:10
Post #2

0%Tolerance
**************
Group: Металариец
Posts: 2,987
Releases: 0
On Forums: 11 years 8 months
Thanks: 568 time(s)
Unknown


Слесарь живьём из 92-го года только отбитым фэнам в коллекцию. Еле осилил до конца.
Go to the top of the page
  Insert nick Quick quote
+Quote Post
post Jan 22 2023, 20:09:49
Post #3

Четыре Литра
****
Group: Металариец
Posts: 390
Releases: 0
On Forums: 4 years 9 months
Thanks: 68 time(s)
Brazil


LINKS OFF
Go to the top of the page
  Insert nick Quick quote
+Quote Post
post Jan 22 2023, 20:27:59
Post #4

балабол
**************
Group: Металариец
Posts: 2,110
Releases: 1
From: РА-река
On Forums: 13 years 2 months
Thanks: 1820 time(s)
Russian Federation


Register


Go to the top of the page
  Insert nick Quick quote
+Quote Post
post Jan 24 2023, 18:34:52
Post #5
BAN
Banned till
May 31 2024, 15:29:50



Slayer - 1992-02-13 - Lund, SWEDEN (FM broadcast)
Seasons In The Abyss World Tour


Thanks:
(1) Occultas,
Go to the top of the page
  Insert nick Quick quote
+Quote Post
post Feb 4 2023, 06:32:35
Post #6

Три Литра
***
Group: Завсегдатай
Posts: 223
Releases: 0
From: China
On Forums: 14 years 3 months
Thanks: 64 time(s)
China


Other download addresses,please (IMG:style_emoticons/default/pray.gif) (IMG:style_emoticons/default/pray.gif) (IMG:style_emoticons/default/pray.gif)
Go to the top of the page
  Insert nick Quick quote
+Quote Post

Reply to this topicStart new topic
2 User(s) are reading this topic (2 Guests and 0 Anonymous Users)
0 Members:

 



- Lo-Fi Version Support form
Copyrights and abuse reports form
Time is now: 28th May 2024 - 01:48:16