Welcome Guest ( Log In | Register )

Объявления

* gmail.com упорно продолжает считать почту с нас "unsolicited" и отбивает в том числе и письма активации, поэтому просьба использовать альтернативные почтовые ящики.
------------
* gmail.com continues reject all mail from us as "unsolicited" (activation mails too) therefore please use alternate mail servers.
> Vosbúð - Heklugjá (2023), Atmospheric Black Metal
post Jan 5 2023, 17:08:52
Post #1

Правь статус, ####!111
**************
Group: Металариец
Posts: 7,560
Releases: 6914
From: Одесса
On Forums: 15 years 11 months
Thanks: 80546 time(s)
Ukraine


(IMG:http://metalarea.org/images/audiocovers/2023_Jan/acov_tid374814_thumb.jpg)

*Artist: Vosbúð
*Album: Heklugjá
*Year: 2023
*Genre: Atmospheric Black Metal
*Country: Iceland (IMG:http://metalarea.org/forum/style_images/flags/Iceland.png)
*Format: mp3@CBR320kbps
*Size: 152MB

Tracklist:
1. Myndhöggvari lífsins og dauðans 17:03
2. Hraun og ástríða 12:35
3. Aska sigursæl 05:41
4. Eldorgía 11:18
5. Heklugjá 16:57
******************************
Total playing time: 1:03:34



Extended info
Rune Lúðvíksson All instruments, Songwriting
Eyjafjallajökull Vocals

Heklugjá is the climax of Volcanic Black Metal: A fiery trip amidst igneous stone and lava gazed in awe unto the imperious and majestic giant of fire: Hekla; gathering the triumphant momentum and the oddness of the Nordic BM lore crafted in epic chants of vehemence towards the Nature. Thus culminating an ode of ecstasy and passion with the invocation of the victorious return of the elements of nature, resilient in the face of the misfortune of mankind decay and its odious utopia.

Hail Nature!


Technical info
(IMG:http://metalarea.org/images/spectrogram/2023_Jan/7d8838cf7d3c41e23684ff2fcb742ab6.png)
Input File: 05. Heklugjá.mp3
Channels : 2
Sample Rate : 44100
Precision : 16-bit
Duration : 00:16:57.11 = 44854595 samples = 76283.3 CDDA sectors
File Size : 40.8M
Bit Rate : 321k
Sample Encoding: MPEG audio (layer I, II or III)
Comments :
Title=Heklugjá
Artist=Vosbúð
Album=Heklugjá
Tracknumber=05
Year=2023
Genre=138



Register


Go to the top of the page
  Insert nick Quick quote
+Quote Post
 
Start new topic
Replies (1 - 3)
post Mar 25 2023, 22:58:49
Post #2

______________
***********
Group: Металариец
Posts: 1,760
Releases: 0
On Forums: 4 years 6 months
Thanks: 558 time(s)
Unknown


Душераздирающий риффинг. Неплохой альбом!
Go to the top of the page
  Insert nick Quick quote
+Quote Post
post Nov 3 2023, 21:14:09
Post #3

Литр
*
Group: Подсевший
Posts: 54
Releases: 0
On Forums: 4 years 8 months
Thanks: 4 time(s)
Unknown


Please re-upload (IMG:style_emoticons/default/smile2.gif)
Go to the top of the page
  Insert nick Quick quote
+Quote Post
post Nov 3 2023, 21:24:12
Post #4

Три Литра
***
Group: Завсегдатай
Posts: 200
Releases: 0
On Forums: 4 years 7 months
Thanks: 128 time(s)
Unknown


Register


Go to the top of the page
  Insert nick Quick quote
+Quote Post

Reply to this topicStart new topic
2 User(s) are reading this topic (2 Guests and 0 Anonymous Users)
0 Members:

 



- Lo-Fi Version Support form
Copyrights and abuse reports form
Time is now: 26th May 2024 - 10:45:57