Welcome Guest ( Log In | Register )

Объявления

* gmail.com упорно продолжает считать почту с нас "unsolicited" и отбивает в том числе и письма активации, поэтому просьба использовать альтернативные почтовые ящики.
------------
* gmail.com continues reject all mail from us as "unsolicited" (activation mails too) therefore please use alternate mail servers.

> И неформату есть предел.

Рэп/хип-хоп/шансон/поп удаляются. Для них есть свои порталы.

> Sale Freux - Le Corbeau Clandestin (2022), Black Metal (D)
post Jan 8 2023, 04:02:37
Post #1

Правь статус, ####!111
**************
Group: Металариец
Posts: 5,173
Releases: 1568
From: Brazil
On Forums: 12 years 5 months
Thanks: 64388 time(s)
Brazil


(IMG:https://metalarea.org/images/audiocovers/2023_Jan/acov_tid374899_thumb.jpg)

*Artist: Sale Freux
*Album: Le Corbeau Clandestin
*Year: 2022
*Genre: Black Metal
*Country: France (IMG:https://metalarea.org/forum/style_images/flags/France.png)
*Format: mp3@CBR320kbps
*Size: 96MB

Tracklist:
1. Au vin ce matin... 05:47
2. Tous les corbeaux du monde 06:37
3. Les tranchées de la clandestinité 06:09
4. Corvofiglia 05:45
5. Le corbeau clandestin 06:15
6. Campania Rasa 04:58
7. Ruralia 06:06
******************************
Total playing time: 41:37

(IMG:https://metalarea.org/images/youtube.png)
(IMG:https://metalarea.org/images/youtube.png)

Extended info
France D'Oïl Productions

7 new songs of rural, monotonous Black/Folk with french ethylic poetry about clandestinity and dramatic love like only Sale Freux knows to do it.


Technical info
(IMG:https://metalarea.org/images/spectrogram/2023_Jan/4d3e135bceb59de20a3c43e4259c31b4.png)
Input File: 02 Tous les corbeaux du monde.mp3
Channels : 2
Sample Rate : 44100
Precision : 16-bit
Duration : 00:06:37.97 = 17550521 samples = 29847.8 CDDA sectors
File Size : 15.9M
Bit Rate : 320k
Sample Encoding: MPEG audio (layer I, II or III)
Comments :
Title=Tous les corbeaux du monde
Artist=Sale Freux
Album=Le corbeau clandestin
Tracknumber=02/7
Year=2022
Genre=Black Metal
Discnumber=1/1



Register


Go to the top of the page
  Insert nick Quick quote
+Quote Post
 
Start new topic
Replies (1 - 6)
post Jan 8 2023, 10:36:05
Post #2
BAN
Banned till
Sep 24 273792723, 17:35:00



блэка не обнаружено.
акустический альбом.


Thanks:
(1) Qliphoth,
Go to the top of the page
  Insert nick Quick quote
+Quote Post
post Jan 8 2023, 12:34:16
Post #3

**************
Group: Металариец
Posts: 2,950
Releases: 14
From: Казань
On Forums: 14 years 10 months
Thanks: 4262 time(s)
Russian Federation


Похмельное деревенское утро...Понимаю. Когда хочется что нибудь наиграть, просто побренчать, как бывало на всяких вписочных хатах. когда у тебя разламывается голова, но, сука, обязательно найдется какой нибудь любитель побренчать с утра на гитарке
Что то все эти Культовые Персонажи начинают испытывать oxуенный творческий ступор, когда нет идей, но есть желание пилить французкие заунывные серенады в поле. Ну да, кто то проникнится, но...вся эта пестнуарщина уже изрядно подзаeбыввает. Впечь


Thanks:
Go to the top of the page
  Insert nick Quick quote
+Quote Post
post Jan 17 2023, 06:53:30
Post #4

Три Литра
***
Group: Завсегдатай
Posts: 272
Releases: 0
On Forums: 17 years 10 months
Thanks: 60 time(s)
Russian Federation


Хороший вокал, лучший в говно жанре депрессив Блэк. Тексты и звук приятные и атмосфера дождя и тоски. Есть некое чутье на набор звуков. Лучший все равно наверное 15 в него, но это лучше некоторых до него.
Go to the top of the page
  Insert nick Quick quote
+Quote Post
post Feb 1 2023, 12:01:09
Post #5

Правь статус, ####!111
**************
Group: Металариец
Posts: 2,992
Releases: 12
On Forums: 16 years 11 months
Thanks: 1783 time(s)
Russian Federation


Отличный альбом. Редкий случай в подобной музыке.
Go to the top of the page
  Insert nick Quick quote
+Quote Post
post Feb 1 2023, 12:31:12
Post #6
BAN
Banned till
Aug 28 2024, 23:08:31



добавляется в мой утренне - похмельный топ.
Go to the top of the page
  Insert nick Quick quote
+Quote Post
post Jul 10 2024, 22:09:22
Post #7

Правь статус, ####!111
**************
Group: Металариец
Posts: 56,266
Releases: 1223
On Forums: 15 years 1 month
Thanks: 55302 time(s)
Russian Federation


Sale Freux - Vol de travers - 30 // 08 // 24

(IMG:https://i.ibb.co/GWKctN9/1252991.jpg)

1. D'amer au corbeau hardi de travers 03:15
2. Creux becs ! 08:06
3. Helvethylia 07:08
4. Noiraigue 07:07
5. Sus au Freux ! 07:03
6. Niemandsland 02:28
7. Heimweh 07:29
8. Absinthia Propaganda 08:28
9. Vol de travers 14:25
Go to the top of the page
  Insert nick Quick quote
+Quote Post

Reply to this topicStart new topic
2 User(s) are reading this topic (2 Guests and 0 Anonymous Users)
0 Members:

 



- Lo-Fi Version Support form
Copyrights and abuse reports form
Time is now: 15th July 2024 - 21:19:56