Welcome Guest ( Log In | Register )

 
Reply to this topicStart new topic
> Nightgoat Invokate The Stars - Ynitsed Suoluben [demo] (2022), Raw/Atmospheric Black Metal
post Jan 8 2023, 21:11:19
Post #1

Правь статус, ####!111
**************
Group: Металариец
Posts: 5,168
Releases: 1566
From: Brazil
On Forums: 12 years 2 months
Thanks: 63985 time(s)
Brazil


(IMG:https://metalarea.org/images/audiocovers/2023_Jan/acov_tid374936_thumb.jpg)

*Artist: Nightgoat Invokate The Stars
*Album: Ynitsed Suoluben [demo]
*Year: 2022
*Genre: Raw/Atmospheric Black Metal
*Country: Unknown (IMG:https://metalarea.org/forum/style_images/flags/Unknown.png)
*Format: mp3@VBR257kbps
*Size: 49MB

Tracklist:
1. Into Nebulous Destiny 07:38  
2. Upon a Crystalline Plane 05:37
3. Bolide Deluge 05:08 
4. Behind Her Lunar Gaze 07:50
******************************
Total playing time: 26:13

(IMG:https://metalarea.org/images/youtube.png)

Extended info
Perverse Homage – 092

tape-rip by zero


Technical info
(IMG:https://metalarea.org/images/spectrogram/2023_Jan/57df8065814f5a03971bb346319b2d87.png)
Input File: 1-01 Into Nebulous Destiny.mp3
Channels : 2
Sample Rate : 44100
Precision : 16-bit
Duration : 00:07:38.19 = 20206047 samples = 34364 CDDA sectors
File Size : 14.5M
Bit Rate : 253k
Sample Encoding: MPEG audio (layer I, II or III)
Comments :
Title=Into Nebulous Destiny
Artist=Nightgoat Invokate The Stars
Album=Ynitsed Suoluben
Tracknumber=01/4
Year=2022
Genre=Black Metal
Discnumber=1/1



Register


Go to the top of the page
  Insert nick Quick quote
+Quote Post

Reply to this topicStart new topic
1 User(s) are reading this topic (1 Guests and 0 Anonymous Users)
0 Members:

 



- Lo-Fi Version Support form
Copyrights and abuse reports form
Time is now: 21st April 2024 - 13:13:40