Welcome Guest ( Log In | Register )

 
Reply to this topicStart new topic
> Nözaakr - Sanguinem Nebula [demo] (2021), Raw Black Metal (D6)
post Jan 8 2023, 21:25:04
Post #1

Правь статус, ####!111
**************
Group: Металариец
Posts: 5,168
Releases: 1566
From: Brazil
On Forums: 12 years 2 months
Thanks: 63984 time(s)
Brazil


(IMG:https://metalarea.org/images/audiocovers/2023_Jan/acov_tid374938_thumb.jpg)

*Artist: Nözaakr
*Album: Sanguinem Nebula [demo]
*Year: 2021
*Genre: Raw Black Metal
*Country: France (IMG:https://metalarea.org/forum/style_images/flags/France.png)
*Format: mp3@CBR320kbps
*Size: 62MB

Tracklist:
1. At Ima Dehiscat 02:28
2. Oblivioni Tradatur Manes 05:41
3. Porta Inferni 03:08
4. Sanguinem Atramento 04:49
5. Reconciliaverit Per Flammas 04:25
6. Latrans Exsanguis Terreat 05:56
******************************
Total playing time: 26:27

(IMG:https://metalarea.org/images/youtube.png)

Extended info
Les Fleurs du Mal Productions
Narbentage Produktionen


Technical info
(IMG:https://metalarea.org/images/spectrogram/2023_Jan/ff47d5a8dc8b443c7efd33846a73adba.png)
Input File: 1-05 Reconciliaverit Per Flammas.mp3
Channels : 2
Sample Rate : 44100
Precision : 16-bit
Duration : 00:04:25.89 = 11725837 samples = 19941.9 CDDA sectors
File Size : 11.6M
Bit Rate : 348k
Sample Encoding: MPEG audio (layer I, II or III)
Comments :
Title=Reconciliaverit Per Flammas
Artist=Nözaakr
Album=Sanguinem Nebula
Tracknumber=5
Year=2021
Genre=Black Metal
Discnumber=1/1



Register


Go to the top of the page
  Insert nick Quick quote
+Quote Post

Reply to this topicStart new topic
1 User(s) are reading this topic (1 Guests and 0 Anonymous Users)
0 Members:

 



- Lo-Fi Version Support form
Copyrights and abuse reports form
Time is now: 21st April 2024 - 12:31:01