Welcome Guest ( Log In | Register )

 
Reply to this topicStart new topic
> Forbidden Temple - Passage To Dark Eternity/Presence Of An Unholy Force [ep] (2022), Black Metal (D)
post Jan 8 2023, 21:36:32
Post #1

Правь статус, ####!111
**************
Group: Металариец
Posts: 5,168
Releases: 1566
From: Brazil
On Forums: 12 years 2 months
Thanks: 63984 time(s)
Brazil


(IMG:https://metalarea.org/images/audiocovers/2023_Jan/acov_tid374940_thumb.jpg)

*Artist: Forbidden Temple
*Album: Passage To Dark Eternity/Presence Of An Unholy Force [ep]
*Year: 2022
*Genre: Black Metal
*Country: Belgium (IMG:https://metalarea.org/forum/style_images/flags/Belgium.png)
*Format: mp3@VBR272kbps
*Size: 17MB

Tracklist:
1. Passage To Dark Eternity 04:03
2. Presence Of An Unholy Force 04:07
******************************
Total playing time: 8:10

(IMG:https://metalarea.org/images/youtube.png)

Extended info
Medieval Prophecy Records

vinyl-rip by zero


Technical info
(IMG:https://metalarea.org/images/spectrogram/2023_Jan/539332be008ac68a841bdf7c7086adf6.png)
Input File: 1-01 Passage To Dark Eternity.mp3
Channels : 2
Sample Rate : 44100
Precision : 16-bit
Duration : 00:04:03.75 = 10749287 samples = 18281.1 CDDA sectors
File Size : 8.48M
Bit Rate : 278k
Sample Encoding: MPEG audio (layer I, II or III)
Comments :
Title=Passage To Dark Eternity
Artist=Forbidden Temple
Album=Passage To Dark Eternity / Presence Of An Unholy Force
Tracknumber=01/2
Year=2022
Genre=Black Metal
Discnumber=1/1



Register


Go to the top of the page
  Insert nick Quick quote
+Quote Post

Reply to this topicStart new topic
1 User(s) are reading this topic (1 Guests and 0 Anonymous Users)
0 Members:

 



- Lo-Fi Version Support form
Copyrights and abuse reports form
Time is now: 21st April 2024 - 11:55:34