Welcome Guest ( Log In | Register )

 
Reply to this topicStart new topic
> Crypts Of Wallachia - The Witches Of Hoia Baciu [demo] (2022), Black Metal
post Jan 8 2023, 21:49:52
Post #1

Правь статус, ####!111
**************
Group: Металариец
Posts: 5,168
Releases: 1566
From: Brazil
On Forums: 12 years 1 month
Thanks: 63692 time(s)
Brazil


(IMG:https://metalarea.org/images/audiocovers/2023_Jan/acov_tid374941_thumb.png)

*Artist: Crypts Of Wallachia
*Album: The Witches Of Hoia Baciu [demo]
*Year: 2022
*Genre: Black Metal
*Country: Belgium (IMG:https://metalarea.org/forum/style_images/flags/Belgium.png)
*Format: mp3@CBR320kbps
*Size: 50MB

Tracklist:
1. Endless Valleys of Gallows and Stakes 06:01  
2. Valtz of Chort's Pale Daughters 06:30  
3. Whirlwind Clouds Drape an Uncaring Moon 05:54  
4. Whispers from Nowhere 02:45
******************************
Total playing time: 21:10

(IMG:https://metalarea.org/images/youtube.png)

Extended info
Medieval Prophecy Records


Technical info
(IMG:https://metalarea.org/images/spectrogram/2023_Jan/848782c35bccd916518a7dd4dcff1242.png)
Input File: 03 - Whirlwind Clouds Drape an Uncaring Moon.mp3
Channels : 2
Sample Rate : 44100
Precision : 16-bit
Duration : 00:05:54.43 = 15630319 samples = 26582.2 CDDA sectors
File Size : 14.2M
Bit Rate : 322k
Sample Encoding: MPEG audio (layer I, II or III)
Comments :
Title=Whirlwind Clouds Drape an Uncaring Moon
Artist=Crypts of Wallachia
Album=The Witches of Hoia Baciu
Tracknumber=3/4
Year=2022
Genre=loud



Register


Go to the top of the page
  Insert nick Quick quote
+Quote Post

Reply to this topicStart new topic
2 User(s) are reading this topic (2 Guests and 0 Anonymous Users)
0 Members:

 



- Lo-Fi Version Support form
Copyrights and abuse reports form
Time is now: 3rd March 2024 - 06:48:16