Welcome Guest ( Log In | Register )

Объявления

* gmail.com упорно продолжает считать почту с нас "unsolicited" и отбивает в том числе и письма активации, поэтому просьба использовать альтернативные почтовые ящики.
------------
* gmail.com continues reject all mail from us as "unsolicited" (activation mails too) therefore please use alternate mail servers.
> Sylvania - Lazos De Sangre - X Aniversario [ep] (2021), Power Metal (D4)
post Jan 9 2023, 04:33:30
Post #1

Правь статус, ####!111
**************
Group: Металариец
Posts: 8,946
Releases: 7184
On Forums: 13 years 6 months
Thanks: 126572 time(s)
Italy


(IMG:https://metalarea.org/images/audiocovers/2023_Jan/acov_tid374946_thumb.jpg)

*Artist: Sylvania
*Album: Lazos De Sangre - X Aniversario [ep]
*Year: 2021
*Genre: Power Metal
*Country: Spain (IMG:https://metalarea.org/forum/style_images/flags/Spain.png)
*Format: mp3@CBR320kbps
*Size: 73MB

Tracklist:
1.Lazos de sangre 04:26
2.Jugando a ser Dios 04:12
3.La princesa prometida 05:16
4.Sal de tu prisión 04:12
5.Mi juicio final 13:44
******************************
Total playing time: 31:50

(IMG:https://metalarea.org/images/youtube.png)
(IMG:https://metalarea.org/images/youtube.png)

Technical info
(IMG:https://metalarea.org/images/spectrogram/2023_Jan/4de4f163452c1d5627b87a53811e06dc.png)
Input File: 02 - Jugando a Ser Dios.mp3
Channels : 2
Sample Rate : 44100
Precision : 16-bit
Duration : 00:04:12.00 = 11113200 samples = 18900 CDDA sectors
File Size : 10.2M
Bit Rate : 324k
Sample Encoding: MPEG audio (layer I, II or III)
Comments :
Title=Jugando a Ser Dios
Artist=Sylvania
Album=Lazos de Sangre (X Aniversario)
Tracknumber=2
Year=2021-12-13
Genre=Power Metal



Register


Go to the top of the page
  Insert nick Quick quote
+Quote Post
 
Start new topic
Replies (1 - 2)
post Jan 10 2023, 10:27:51
Post #2

Group: Дух
Posts: 5
Releases: 0
On Forums: 15 years 4 months
Thanks: 1 time(s)
Russian Federation


Ссылки не рабочие!


Thanks:
Go to the top of the page
  Insert nick Quick quote
+Quote Post
post Jan 11 2023, 15:10:49
Post #3

? ? ? ? ? ? ?
********
Group: Металариец
Posts: 833
Releases: 25
On Forums: 17 years 3 months
Thanks: 636 time(s)
Russian Federation


ЦИТАТА(Atas1970 @ 10th January 2023 - 12:27:51) *
Ссылки не рабочие!

Подтверждаю.


Thanks:
Go to the top of the page
  Insert nick Quick quote
+Quote Post

Reply to this topicStart new topic
1 User(s) are reading this topic (1 Guests and 0 Anonymous Users)
0 Members:

 



- Lo-Fi Version Support form
Copyrights and abuse reports form
Time is now: 26th May 2024 - 10:35:30