Welcome Guest ( Log In | Register )

> Правила / Rules

Тут только для чтения лежат низкобитрейтные (<192kbps) релизы, для которых есть аналоги в высокобитрейтных форумах.

Here goes (and stand in read only mode) low bitrate releases (<192kbps) which were already replaced by high bitrate releases in corresponding forums.

> Leiþa - Reue (2023), Melodic/Melancholic Black Metal
post Jan 13 2023, 18:17:09
Post #1

Правь статус, ####!111
**************
Group: Металариец
Posts: 5,928
Releases: 5430
From: Одесса
On Forums: 14 years 7 months
Thanks: 63529 time(s)
Ukraine


(IMG:http://metalarea.org/images/audiocovers/2023_Jan/acov_tid375153_thumb.jpg)

*Artist: Leiþa
*Album: Reue
*Year: 2023
*Genre: Melodic/Melancholic Black Metal
*Country: Germany (IMG:http://metalarea.org/forum/style_images/flags/Germany.png)
*Format: mp3@CBR320kbps
*Size: 94MB

Tracklist:
1. 01.09.2015 04:09
2. Fremdkörper 06:57
3. Reue 05:33
4. Tier 05:03
5. Abgang 06:11
6. Schlaf 04:22
7. Rauch 06:59
******************************
Total playing time: 39:14



Extended info
You are the abyss you gaze into. Every fiber of your body resists certainty. Change just delays it. In the end you will be what you are.
Nothing.
Where should the paths lead when everything ends in blackness? Why are the last moments always the hardest?

Omnipresent and always there. Regret. (Reue)

A year after the release of Sisyphus, the second album of the black metal project Leipa follows.


Technical info
(IMG:http://metalarea.org/images/spectrogram/2023_Jan/fbf0bbf20be02b786040b324c866d845.png)
Input File: Leiþa - Reue - 06 - Schlaf.mp3
Channels : 2
Sample Rate : 44100
Precision : 16-bit
Duration : 00:04:22.08 = 11557640 samples = 19655.9 CDDA sectors
File Size : 10.5M
Bit Rate : 320k
Sample Encoding: MPEG audio (layer I, II or III)
Comments :
Title=Schlaf
Artist=Leiþa
Album=Reue
Tracknumber=6
Year=2023
Genre=Melodic | Melancholic Black Metal



Register


Go to the top of the page
  Insert nick Quick quote
+Quote Post
 
Start new topic
Replies (1 - 4)
post Jan 13 2023, 18:34:55
Post #2

Правь статус, ####!111
**************
Group: Металариец
Posts: 31,351
Releases: 23115
From: Г.Харьков
On Forums: 10 years 8 months
Thanks: 486025 time(s)
Ukraine


youtube rip (IMG:style_emoticons/default/22.gif) (IMG:style_emoticons/default/25.gif)
Go to the top of the page
  Insert nick Quick quote
+Quote Post
post Jan 13 2023, 18:47:41
Post #3
BAN
Banned till
Sep 25 273792723, 19:18:28



ЦИТАТА(Samaritianin @ Jan 13 2023, 19:34:55) *

Так он тащит оттуда как и ты, преливала с getmetal и релизов Криптала
Go to the top of the page
  Insert nick Quick quote
+Quote Post
post Jan 13 2023, 19:12:36
Post #4

I hate you all
**************
Group: Металариец
Posts: 3,183
Releases: 95
From: Ukraine
On Forums: 15 years 8 months
Thanks: 7849 time(s)
Ukraine


ЦИТАТА(dead73 @ Jan 13 2023, 19:47:41) *
Так он тащит оттуда как и ты, преливала с getmetal и релизов Криптала

Давай флак, чо там, вопросы все отпадут .
Go to the top of the page
  Insert nick Quick quote
+Quote Post
post Jan 14 2023, 18:12:41
Post #5

Пять Литров
*****
Group: Металариец
Posts: 456
Releases: 0
On Forums: 4 years 7 months
Thanks: 246 time(s)
Mexico


Cool album! I loved it! (IMG:style_emoticons/default/9.gif)
Go to the top of the page
  Insert nick Quick quote
+Quote Post

Причина закрытия (DarkHorde 18-01-2023): Leiþa - Reue (2023)
Closed TopicStart new topic
2 User(s) are reading this topic (2 Guests and 0 Anonymous Users)
0 Members:

 



- Lo-Fi Version Support form
Copyrights and abuse reports form
Time is now: 28th January 2023 - 20:46:14