Welcome Guest ( Log In | Register )

Объявления

* gmail.com упорно продолжает считать почту с нас "unsolicited" и отбивает в том числе и письма активации, поэтому просьба использовать альтернативные почтовые ящики.
------------
* gmail.com continues reject all mail from us as "unsolicited" (activation mails too) therefore please use alternate mail servers.

> Правила / Rules

Тут только для чтения лежат низкобитрейтные (<192kbps) релизы, для которых есть аналоги в высокобитрейтных форумах.

Here goes (and stand in read only mode) low bitrate releases (<192kbps) which were already replaced by high bitrate releases in corresponding forums.

Причина закрытия (Хогги 19-01-2023):
 
Closed TopicStart new topic
> Achelous - Northern Winds [ep] (2021), Epic Heavy Metal (D5)
post Jan 13 2023, 18:28:29
Post #1

Правь статус, ####!111
**************
Group: Металариец
Posts: 3,975
Releases: 2631
From: Greece
On Forums: 16 years 11 months
Thanks: 27565 time(s)
Greece


(IMG:https://metalarea.org/images/audiocovers/2023_Jan/acov_tid375154_thumb.jpg)

*Artist: Achelous
*Album: Northern Winds [ep]
*Year: 2021
*Genre: Epic Heavy Metal
*Country: Greece (IMG:https://metalarea.org/forum/style_images/flags/Greece.png)
*Format: mp3@CBR320kbps
*Size: 61MB

Tracklist:
1. Northern Winds 06:11
2. The River God 04:46
3. Macedon (live) 06:05  
4. Myrmidons (live) 04:20  
5. Warriors with Wings (live) 05:50
******************************
Total playing time: 27:12



(IMG:https://metalarea.org/images/youtube.png)

Technical info
(IMG:https://metalarea.org/images/spectrogram/2023_Jan/9df34ae5f08d992842e4fc52971db071.png)
Input File: 02 - The River God.mp3
Channels : 2
Sample Rate : 44100
Precision : 16-bit
Duration : 00:04:46.15 = 12619347 samples = 21461.5 CDDA sectors
File Size : 11.4M
Bit Rate : 320k
Sample Encoding: MPEG audio (layer I, II or III)
Comments :
Artist=Achelous
Year=0
Genre=12



Register


Go to the top of the page
  Insert nick Quick quote
+Quote Post

Причина закрытия (Хогги 19-01-2023):
Closed TopicStart new topic
1 User(s) are reading this topic (1 Guests and 0 Anonymous Users)
0 Members:

 



- Lo-Fi Version Support form
Copyrights and abuse reports form
Time is now: 23rd July 2024 - 19:04:54