Welcome Guest ( Log In | Register )

> Storm - True Metal (2023), Black/Death Metal
post Jan 17 2023, 06:41:47
Post #1

Правь статус, ####!111
**************
Group: Металариец
Posts: 35,114
Releases: 26118
From: Г.Харьков
On Forums: 11 years 9 months
Thanks: 562114 time(s)
Ukraine


(IMG:http://metalarea.org/images/audiocovers/2023_Jan/acov_tid375262_thumb.jpg)

*Artist: Storm
*Album: True Metal
*Year: 2023
*Genre: Black/Death Metal
*Country: Spain (IMG:http://metalarea.org/forum/style_images/flags/Spain.png)
*Format: mp3@CBR320kbps
*Size: 64MB

Tracklist:
1. Intro
2. Meiga
3. The Beginning of the End
4. Pedraforca
5. Through My Eyes
6. Fall and Rise
7. Hate Spell
8. Interludio
9. Deathdealer
10. Paralysis
******************************
Total playing time: 28:02




Technical info
(IMG:http://metalarea.org/images/spectrogram/2023_Jan/06315e8428b9fa9bea4cc80a0e0792b1.png)
Input File: 07 - Hate Spell.mp3
Channels : 2
Sample Rate : 44100
Precision : 16-bit
Duration : 00:03:39.44 = 9677436 samples = 16458.2 CDDA sectors
File Size : 8.78M
Bit Rate : 320k
Sample Encoding: MPEG audio (layer I, II or III)
Comments :
Title=Hate Spell
Artist=Storm
Album=True Metal
Tracknumber=7
Year=2023



Register


Go to the top of the page
  Insert nick Quick quote
+Quote Post
 
Start new topic
Replies (1 - 5)
post Jan 17 2023, 22:22:48
Post #2
BAN
Banned till
Mar 3 2024, 11:01:22



Лого у Ксастура стибрили.


Thanks:
(1) nsk2008,
Go to the top of the page
  Insert nick Quick quote
+Quote Post
post Jan 17 2023, 22:31:00
Post #3

Шесть Литров
******
Group: Металариец
Posts: 579
Releases: 0
On Forums: 15 years 1 month
Thanks: 446 time(s)
Brazil


ЦИТАТА(vosmidesijatye @ Jan 18 2023, 00:22:48) *
Лого у Ксастура стибрили.


А название у Storm.


Go to the top of the page
  Insert nick Quick quote
+Quote Post
post Jan 17 2023, 22:46:40
Post #4
BAN
Banned till
Mar 3 2024, 11:01:22



И не говори, фантазии от аще нуль.
Go to the top of the page
  Insert nick Quick quote
+Quote Post
post Jan 18 2023, 03:29:12
Post #5

Аббат-батяня, батяня-Аббат
**************
Group: Металариец
Posts: 3,530
Releases: 0
On Forums: 14 years 10 months
Thanks: 2282 time(s)
Russian Federation


ЦИТАТА(vosmidesijatye @ Jan 18 2023, 02:22:48) *
Лого у Ксастура стибрили.

ЦИТАТА(nsk2008 @ Jan 18 2023, 02:31:00) *
А название у Storm.

True Metal же


Thanks:
(1) Occultas,
Go to the top of the page
  Insert nick Quick quote
+Quote Post
post Jan 19 2023, 19:28:05
Post #6

Common dweller of hell
**************
Group: Металариец
Posts: 5,256
Releases: 12
From: Dnipro
On Forums: 15 years 7 months
Thanks: 2125 time(s)
Ukraine





Go to the top of the page
  Insert nick Quick quote
+Quote Post

Reply to this topicStart new topic
1 User(s) are reading this topic (1 Guests and 0 Anonymous Users)
0 Members:

 



- Lo-Fi Version Support form
Copyrights and abuse reports form
Time is now: 2nd March 2024 - 23:30:11