Welcome Guest ( Log In | Register )

Объявления

* gmail.com упорно продолжает считать почту с нас "unsolicited" и отбивает в том числе и письма активации, поэтому просьба использовать альтернативные почтовые ящики.
------------
* gmail.com continues reject all mail from us as "unsolicited" (activation mails too) therefore please use alternate mail servers.
> Sardonic Witchery & Héia - Ordeal Of The Abyss [split] (2022), Black Metal | Black Metal (D10)(D7)
post Jan 18 2023, 04:20:43
Post #1

Правь статус, ####!111
**************
Group: Металариец
Posts: 8,968
Releases: 7206
On Forums: 13 years 6 months
Thanks: 126978 time(s)
Italy


(IMG:https://metalarea.org/images/audiocovers/2023_Jan/acov_tid375300_thumb.jpg)

*Artist: Sardonic Witchery & Héia
*Album: Ordeal Of The Abyss [split]
*Year: 2022
*Genre: Black Metal | Black Metal
*Country: Portugal (IMG:https://metalarea.org/forum/style_images/flags/Portugal.png) | Brazil (IMG:https://metalarea.org/forum/style_images/flags/Brazil.png)
*Format: mp3@CBR320kbps
*Size: 97MB

Tracklist:
Sardonic Witchery:
1.Fetichização Infernal 05:23
2.Mulher Escarlate 06:29
3.Sangue Sádico 04:48
4.Rei Vampiro 05:29
Héia:
5.Precipice Between Phenomenal and Noumenal 05:25
6.The Veil of Darkness 06:18
7.The Cult of Death 04:23
8.The Supreme Manifestation of the Black Flame 04:06
******************************
Total playing time: 42:21




Technical info
(IMG:https://metalarea.org/images/spectrogram/2023_Jan/9419904153ace019f1612533e1575306.png)
Input File: 08-heia-the_supreme_manisfestation_of_the_black_flame.mp3
Channels : 2
Sample Rate : 44100
Precision : 16-bit
Duration : 00:04:06.09 = 10852569 samples = 18456.8 CDDA sectors
File Size : 9.85M
Bit Rate : 320k
Sample Encoding: MPEG audio (layer I, II or III)
Comments :
Title=The Supreme Manisfestation of the Black Flame
Artist=Héia
Album=Ordeal of Abyss
Tracknumber=8/8
Year=2022-06-06
Genre=Black Metal



Register


Go to the top of the page
  Insert nick Quick quote
+Quote Post
 
Start new topic
Replies (1 - 2)
post Jan 18 2023, 16:37:26
Post #2

Восемь Литров
********
Group: Металариец
Posts: 822
Releases: 18
On Forums: 6 years 3 months
Thanks: 3245 time(s)
Unknown


...It's the final FLACdown...

Register


Go to the top of the page
  Insert nick Quick quote
+Quote Post
post Jan 19 2023, 19:22:58
Post #3

Common dweller of hell
**************
Group: Металариец
Posts: 5,397
Releases: 12
From: Dnipro
On Forums: 15 years 10 months
Thanks: 2198 time(s)
Ukraine


Отличный сплит.
Go to the top of the page
  Insert nick Quick quote
+Quote Post

Reply to this topicStart new topic
1 User(s) are reading this topic (1 Guests and 0 Anonymous Users)
0 Members:

 



- Lo-Fi Version Support form
Copyrights and abuse reports form
Time is now: 30th May 2024 - 23:56:01