Welcome Guest ( Log In | Register )

Объявления

* gmail.com упорно продолжает считать почту с нас "unsolicited" и отбивает в том числе и письма активации, поэтому просьба использовать альтернативные почтовые ящики.
------------
* gmail.com continues reject all mail from us as "unsolicited" (activation mails too) therefore please use alternate mail servers.
> Leiþa - Reue (2023), Melodic Black Metal
post Jan 18 2023, 06:24:16
Post #1

Правь статус, ####!111
**************
Group: Металариец
Posts: 36,233
Releases: 27014
From: Г.Харьков
On Forums: 12 years 1 month
Thanks: 587256 time(s)
Ukraine


(IMG:http://metalarea.org/images/audiocovers/2023_Jan/acov_tid375305_thumb.jpg)

*Artist: Leiþa
*Album: Reue
*Year: 2023
*Genre: Melodic Black Metal
*Country: Germany (IMG:http://metalarea.org/forum/style_images/flags/Germany.png)
*Format: mp3@CBR320kbps
*Size: 89MB

Tracklist:
1. 01.09.2015 04:09
2. Fremdkörper 06:57
3. Reue 05:33
4. Tier 05:03
5. Abgang 06:11
6. Schlaf 04:22
7. Rauch 06:59
******************************
Total playing time: 39:14



Extended info
Noise Everything (2021-present)
See also: Kanonenfieber, Non Est Deus


Technical info
(IMG:http://metalarea.org/images/spectrogram/2023_Jan/0e3328b674425979f0768822d6578bc2.png)
Input File: 07 - Rauch.mp3
Channels : 2
Sample Rate : 44100
Precision : 16-bit
Duration : 00:06:58.53 = 18457349 samples = 31390 CDDA sectors
File Size : 16.7M
Bit Rate : 320k
Sample Encoding: MPEG audio (layer I, II or III)
Comments :
Title=Rauch
Artist=Leipa
Album=Reue
Tracknumber=7
Year=2023



Register


Go to the top of the page
  Insert nick Quick quote
+Quote Post
 
Start new topic
Replies (1 - 5)
post Jan 18 2023, 17:18:59
Post #2

Мегаманьяк
***********
Group: Металариец
Posts: 1,838
Releases: 0
From: Russian Federation - St.Petersburg
On Forums: 15 years 3 months
Thanks: 527 time(s)
Russian Federation


Спасибо, послушаем! Альбом 2021г у этих ребят очень бодрый! (IMG:style_emoticons/default/h27001.gif)
Go to the top of the page
  Insert nick Quick quote
+Quote Post
post Jan 18 2023, 19:03:36
Post #3

Правь статус, ####!111
**************
Group: Металариец
Posts: 36,233
Releases: 27014
From: Г.Харьков
On Forums: 12 years 1 month
Thanks: 587256 time(s)
Ukraine


FLAC (Tracks) 254 mb
Register


Go to the top of the page
  Insert nick Quick quote
+Quote Post
post Jan 19 2023, 05:36:34
Post #4

gazing the void
****
Group: Металариец
Posts: 362
Releases: 6
On Forums: 7 years 1 month
Thanks: 386 time(s)
Zimbabwe


ЦИТАТА(Olrak @ Jan 18 2023, 20:18:59) *
у этих ребят
Lineup:
1. Noise - Everything (2021-present)

ЦИТАТА(Olrak @ Jan 18 2023, 20:18:59) *
очень бодрый! (IMG:style_emoticons/default/h27001.gif)
Lyrical themes: Depression
(IMG:style_emoticons/default/hmm.gif)
Go to the top of the page
  Insert nick Quick quote
+Quote Post
post Jan 19 2023, 17:42:30
Post #5

Мегаманьяк
***********
Group: Металариец
Posts: 1,838
Releases: 0
From: Russian Federation - St.Petersburg
On Forums: 15 years 3 months
Thanks: 527 time(s)
Russian Federation


ЦИТАТА(Shadechaser @ Jan 19 2023, 07:36:34) *
(...)
Lyrical themes: Depression
(IMG:style_emoticons/default/hmm.gif)

(IMG:style_emoticons/default/hmm.gif) (IMG:style_emoticons/default/hmm.gif)
Go to the top of the page
  Insert nick Quick quote
+Quote Post
post Jan 19 2023, 19:19:20
Post #6

Common dweller of hell
**************
Group: Металариец
Posts: 5,445
Releases: 12
From: Dnipro
On Forums: 15 years 11 months
Thanks: 2207 time(s)
Ukraine


Очень не плохо (IMG:style_emoticons/default/20.gif)
Go to the top of the page
  Insert nick Quick quote
+Quote Post

Reply to this topicStart new topic
1 User(s) are reading this topic (1 Guests and 0 Anonymous Users)
0 Members:

 



- Lo-Fi Version Support form
Copyrights and abuse reports form
Time is now: 24th June 2024 - 04:01:20