Welcome Guest ( Log In | Register )

Объявления

* gmail.com упорно продолжает считать почту с нас "unsolicited" и отбивает в том числе и письма активации, поэтому просьба использовать альтернативные почтовые ящики.
------------
* gmail.com continues reject all mail from us as "unsolicited" (activation mails too) therefore please use alternate mail servers.
> Ornamentos Del Miedo - Frío [ep] (2023), Atmospheric/Funeral Doom Metal (D5)
post Jan 18 2023, 20:49:37
Post #1

Правь статус, ####!111
**************
Group: Металариец
Posts: 36,161
Releases: 26957
From: Г.Харьков
On Forums: 12 years 1 month
Thanks: 585528 time(s)
Ukraine


(IMG:http://metalarea.org/images/audiocovers/2023_Jan/acov_tid375324_thumb.jpg)

*Artist: Ornamentos Del Miedo
*Album: Frío [ep]
*Year: 2023
*Genre: Atmospheric/Funeral Doom Metal
*Country: Spain (IMG:http://metalarea.org/forum/style_images/flags/Spain.png)
*Format: mp3@CBR320kbps
*Size: 53MB

Tracklist:
1. Frío 11:58
2. Vuelven los días 11:20
******************************
Total playing time: 23:18




Extended info
Angel Everything (2017-present)
See also: Ad Nebula Nigra, Graveyard of Souls, Logical End, ex-Aural Butchery, ex-Authority Crisis, ex-Mass Burial, ex-Fosa Komun


Technical info
(IMG:http://metalarea.org/images/spectrogram/2023_Jan/ace9d9877b3c9c825a6c262e6304e388.png)
Input File: Ornamentos del Miedo - Frío - 02 Vuelven los días.mp3
Channels : 2
Sample Rate : 44100
Precision : 16-bit
Duration : 00:11:20.14 = 29993954 samples = 51010.1 CDDA sectors
File Size : 27.4M
Bit Rate : 322k
Sample Encoding: MPEG audio (layer I, II or III)
Comments :
Title=Vuelven los días
Artist=Ornamentos del Miedo
Album=Frío
Tracknumber=2
Year=2023



Register


Go to the top of the page
  Insert nick Quick quote
+Quote Post
 
Start new topic
Replies (1 - 2)
post Mar 11 2023, 07:37:27
Post #2

i listen to black metal
**************
Group: Металариец
Posts: 4,092
Releases: 150
From: Москва
On Forums: 17 years 5 months
Thanks: 2629 time(s)
Russian Federation


голос чуточку посильнее нужен ,по музыке достойно
Go to the top of the page
  Insert nick Quick quote
+Quote Post
post Apr 3 2024, 12:59:07
Post #3

Правь статус, ####!111
**************
Group: Металариец
Posts: 3,332
Releases: 0
On Forums: 15 years 4 months
Thanks: 1680 time(s)
South Korea


1. 320 kbps from the neighborhood on the web:
Register

Register

Thanks to mazut30!

2. Each track previewable or downloadable at 320 kbps for free (or purchase) if you want to preview or miss some tracks:
Register


3. Preview (or purchase):

[All credits go to the band and the posters].


Thanks:
(1) Wail,
Go to the top of the page
  Insert nick Quick quote
+Quote Post

Reply to this topicStart new topic
1 User(s) are reading this topic (1 Guests and 0 Anonymous Users)
0 Members:

 



- Lo-Fi Version Support form
Copyrights and abuse reports form
Time is now: 14th June 2024 - 10:08:12