Welcome Guest ( Log In | Register )

Объявления

* gmail.com упорно продолжает считать почту с нас "unsolicited" и отбивает в том числе и письма активации, поэтому просьба использовать альтернативные почтовые ящики.
------------
* gmail.com continues reject all mail from us as "unsolicited" (activation mails too) therefore please use alternate mail servers.
 
Reply to this topicStart new topic
> Codex - Ataraxia [ep] (2023), Death Metal (D7)
post Jan 19 2023, 04:44:55
Post #1

Правь статус, ####!111
**************
Group: Металариец
Posts: 9,121
Releases: 7356
On Forums: 13 years 7 months
Thanks: 129492 time(s)
Italy


(IMG:https://metalarea.org/images/audiocovers/2023_Jan/acov_tid375330_thumb.jpg)

*Artist: Codex
*Album: Ataraxia [ep]
*Year: 2023
*Genre: Death Metal
*Country: Chile (IMG:https://metalarea.org/forum/style_images/flags/Chile.png)
*Format: mp3@CBR320kbps
*Size: 36MB

Tracklist:
1.Ascenso 03:32
2.Madre 04:18
3.Acto Final 03:48
4.Onagar 04:04
******************************
Total playing time: 15:42



Technical info
(IMG:https://metalarea.org/images/spectrogram/2023_Jan/6d2b9a40c1b1bca44c5d75a96d6c5606.png)
Input File: 01 - Ascenso.mp3
Channels : 2
Sample Rate : 44100
Precision : 16-bit
Duration : 00:03:33.04 = 9395196 samples = 15978.2 CDDA sectors
File Size : 8.65M
Bit Rate : 325k
Sample Encoding: MPEG audio (layer I, II or III)
Comments :
Title=Ascenso
Artist=Codex
Album=Ataraxia
Tracknumber=01
Year=2023
Genre=Death Metal



Register


Go to the top of the page
  Insert nick Quick quote
+Quote Post

Reply to this topicStart new topic
1 User(s) are reading this topic (1 Guests and 0 Anonymous Users)
0 Members:

 



- Lo-Fi Version Support form
Copyrights and abuse reports form
Time is now: 20th June 2024 - 09:48:55