Welcome Guest ( Log In | Register )

Объявления

* gmail.com упорно продолжает считать почту с нас "unsolicited" и отбивает в том числе и письма активации, поэтому просьба использовать альтернативные почтовые ящики.
------------
* gmail.com continues reject all mail from us as "unsolicited" (activation mails too) therefore please use alternate mail servers.
> Deiquisitor - Apotheosis (2023), Old School Death Metal (D)
post Jan 19 2023, 13:58:45
Post #1

Правь статус, ####!111
**************
Group: Металариец
Posts: 36,400
Releases: 27140
From: Г.Харьков
On Forums: 12 years 2 months
Thanks: 591018 time(s)
Ukraine


(IMG:http://metalarea.org/images/audiocovers/2023_Jan/acov_tid375355_thumb.jpg)

*Artist: Deiquisitor
*Album: Apotheosis
*Year: 2023
*Genre: Old School Death Metal
*Country: Denmark (IMG:http://metalarea.org/forum/style_images/flags/Denmark.png)
*Format: mp3@CBR320kbps
*Size: 91MB

Tracklist:
1. Humanoid 05:33
2. Striving for Destruction 04:17
3. Autosarcophagy 04:37
4. The Eyes of Worms 04:27
5. Apophis 03:50
6. Reflected by the Void 03:39
7. Deiquisitor 03:30
8. Atomic Assassins 04:16
9. Praise the Lord 04:19
******************************
Total playing time: 38:28




Extended info
HBC Drums, Vocals (backing)
See also: Had, Luciation, Offerkult, Ulcerot, ex-Blodfest, ex-Ogdru Jahad, ex-Putrifixion, ex-Wolfslair, ex-Nastran, ex-Domination, ex-Legion, ex-Angantyr (live), ex-Sadomator (live), ex-Dominus, ex-Purification Kommando
TFJ Guitars, Vocals
See also: Panoptical Mycosis, Pazuzelhomet, Ulcerot, ex-Blodfest, ex-Ogdru Jahad, ex-Solhverv, ex-Wolfslair, ex-Fallen Angel, ex-Offerkult, ex-Gastabloss
DA Bass, Vocals (backing) (2014-present)
See also: ex-Purification Kommando


Technical info
(IMG:http://metalarea.org/images/spectrogram/2023_Jan/6004c6816ca722096670d754687d2c8e.png)
Input File: 08 - Atomic Assassins.mp3
Channels : 2
Sample Rate : 44100
Precision : 16-bit
Duration : 00:04:15.70 = 11276502 samples = 19177.7 CDDA sectors
File Size : 10.4M
Bit Rate : 326k
Sample Encoding: MPEG audio (layer I, II or III)
Comments :
Title=Atomic Assassins
Artist=Deiquisitor
Album=Apotheosis
Tracknumber=8/9
Year=2023
Genre=9
Discnumber=1/1



Register


Go to the top of the page
  Insert nick Quick quote
+Quote Post
 
Start new topic
Replies (1 - 5)
post Jan 20 2023, 08:26:41
Post #2

Правь статус, ####!111
**************
Group: Металариец
Posts: 2,790
Releases: 0
From: APATIN, SERBIA, АПАТИН, СЕРБИЯ
On Forums: 16 years 8 months
Thanks: 8919 time(s)



Flac

Register


Go to the top of the page
  Insert nick Quick quote
+Quote Post
post Jan 20 2023, 14:48:50
Post #3

Маньяк
**********
Group: Металариец
Posts: 1,053
Releases: 0
From: Лыткарино
On Forums: 5 years 2 months
Thanks: 299 time(s)
Russian Federation


Несколько кашеобразно и такое ощущение, что все пестни подряд на одном месте топчутся. 5/10
Go to the top of the page
  Insert nick Quick quote
+Quote Post
post Jan 21 2023, 09:46:01
Post #4

кручу наждак
**************
Group: Металариец
Posts: 6,622
Releases: 111
From: Самара
On Forums: 14 years 2 months
Thanks: 5170 time(s)
Russian Federation


Средне, стандартно, без запоминающихся моментов.
Go to the top of the page
  Insert nick Quick quote
+Quote Post
post Jan 22 2023, 17:15:48
Post #5

Маньяк
**********
Group: Металариец
Posts: 1,027
Releases: 0
From: South Of Heaven
On Forums: 16 years 11 months
Thanks: 477 time(s)
Ukraine


мдааа... соглашусь с вышеотписавшимися камрадами...(
Go to the top of the page
  Insert nick Quick quote
+Quote Post
post Jan 31 2023, 16:28:40
Post #6

मृत्यु
**************
Group: Металариец
Posts: 3,620
Releases: 24
On Forums: 13 years 11 months
Thanks: 2378 time(s)
Antarctica


После небольшой прослушки на бк отправлю в очередь для плеера эту помесь из старых Sinister (времён Diabolical Summoning) и Suffocation (времён Human Waste\Effigy Of The Forgotten) + ещё что-то знакомое. Может Banished\Baphomet\Brutality, хз. Странноватый звук с наложенной реверберацией типа "бочка" или "металлическая комната". (IMG:style_emoticons/default/crazy.gif) Ну и с бывшими участниками Ogdru Jahad\Sadomator\Dominus\Purification Kommando\Solhverv. (IMG:style_emoticons/default/20.gif)


Thanks:
(1) Occultas,
Go to the top of the page
  Insert nick Quick quote
+Quote Post

Reply to this topicStart new topic
1 User(s) are reading this topic (1 Guests and 0 Anonymous Users)
0 Members:

 



- Lo-Fi Version Support form
Copyrights and abuse reports form
Time is now: 14th July 2024 - 14:45:31