Welcome Guest ( Log In | Register )

Объявления

* gmail.com упорно продолжает считать почту с нас "unsolicited" и отбивает в том числе и письма активации, поэтому просьба использовать альтернативные почтовые ящики.
------------
* gmail.com continues reject all mail from us as "unsolicited" (activation mails too) therefore please use alternate mail servers.
> Velian - Spectacle Of Tragedy (2023), Melodic Gothic/Death Metal
post Jan 20 2023, 18:25:34
Post #1

Правь статус, ####!111
**************
Group: Металариец
Posts: 35,903
Releases: 26752
From: Г.Харьков
On Forums: 12 years 1 week
Thanks: 580261 time(s)
Ukraine


(IMG:http://metalarea.org/images/audiocovers/2023_Jan/acov_tid375418_thumb.jpg)

*Artist: Velian
*Album: Spectacle Of Tragedy
*Year: 2023
*Genre: Melodic Gothic/Death Metal
*Country: Bulgaria (IMG:http://metalarea.org/forum/style_images/flags/Bulgaria.png)
*Format: mp3@CBR320kbps
*Size: 97MB

Tracklist:
1. Spectacle of Tragedy 04:08
2. For Eternity 03:36
3. Sin Eater 04:39
4. Waiting in Silence 03:34
5. Funeral 04:03
6. Star of Mine 03:43
7. Reduced to Irrelevance 03:43
8. Beacon of Hope 03:59
9. One by One We Fall 03:38
10. The Voyage 04:28
11. November Farewell 03:04
******************************
Total playing time: 42:35




Extended info
Antonio Mitov Bass
Velizar Bolchev Drums
Dilian Nedev Guitars, Keyboards
Ivan Ivanov Vocals


Technical info
(IMG:http://metalarea.org/images/spectrogram/2023_Jan/7931dc6bd13b94393c041112fdcf8dcc.png)
Input File: 05 - Funeral.mp3
Channels : 2
Sample Rate : 44100
Precision : 16-bit
Duration : 00:04:03.45 = 10736189 samples = 18258.8 CDDA sectors
File Size : 9.74M
Bit Rate : 320k
Sample Encoding: MPEG audio (layer I, II or III)
Comments :
Title=Funeral
Artist=Velian
Album=Spectacle of Tragedy
Tracknumber=5
Year=2023



Register


Go to the top of the page
  Insert nick Quick quote
+Quote Post
 
Start new topic
Replies (1 - 2)
post Jan 21 2023, 13:06:37
Post #2

No More Tears
**************
Group: Металариец
Posts: 5,014
Releases: 114
From: Тбилиси, Грузия
On Forums: 17 years 9 months
Thanks: 2451 time(s)
Georgia


Мелодия, какая-никакая, в этом точно есть. Что ж, достижение.


Thanks:
(1) Dark Sage,
Go to the top of the page
  Insert nick Quick quote
+Quote Post
post Jan 23 2023, 05:01:27
Post #3

Metalic Lady
**
Group: Завсегдатай
Posts: 182
Releases: 1
On Forums: 17 years 7 months
Thanks: 118 time(s)
Russian Federation


Интересный альбом, приятно было послушать
Go to the top of the page
  Insert nick Quick quote
+Quote Post

Reply to this topicStart new topic
2 User(s) are reading this topic (2 Guests and 0 Anonymous Users)
0 Members:

 



- Lo-Fi Version Support form
Copyrights and abuse reports form
Time is now: 21st May 2024 - 08:16:50