Welcome Guest ( Log In | Register )

> Правила / Rules

Тут только для чтения лежат низкобитрейтные (<192kbps) релизы, для которых есть аналоги в высокобитрейтных форумах.

Here goes (and stand in read only mode) low bitrate releases (<192kbps) which were already replaced by high bitrate releases in corresponding forums.

Причина закрытия (Хогги 27-01-2023):
 
Closed TopicStart new topic
> 44 X ES - Banish Silence [ep] (1995), Industrial/Thrash Metal
post Jan 21 2023, 06:47:39
Post #1

Подвал
**************
Group: Металариец
Posts: 20,039
Releases: 11497
From: Far East (Khabarovsk)
On Forums: 15 years 1 month
Thanks: 136469 time(s)
Russian Federation


(IMG:http://metalarea.org/images/audiocovers/2023_Jan/acov_tid375432_thumb.jpg)

*Artist: 44 X ES
*Album: Banish Silence [ep]
*Year: 1995
*Genre: Industrial/Thrash Metal
*Country: Germany (IMG:http://metalarea.org/forum/style_images/flags/Germany.png)
*Format: mp3@CBR192kbps
*Size: 42MB

Tracklist:
1. Body Or Soul 05:06
2. Neon Bugs 03:31
3. The Colour Of Overload 04:14
4. Bend Or Break 03:33
5. Shit Happens 02:01
6. U.S.S. Headfucker 05:10
7. Trans M. 05:03
8. Concerner 030 02:45
******************************
Total playing time: 31:23

Extended info
ex-Crashcat.
Recorded at UZI Beat, Bremen.
Mixed at Clean Machine, Hamburg, December, 1994.


Technical info
(IMG:http://metalarea.org/images/spectrogram/2023_Jan/c26286c5f28958bef3984a65e39bcac1.png)
Input File: 02-Neon Bugs.mp3
Channels : 2
Sample Rate : 44100
Precision : 16-bit
Duration : 00:03:29.25 = 9228013 samples = 15693.9 CDDA sectors
File Size : 5.02M
Bit Rate : 192k
Sample Encoding: MPEG audio (layer I, II or III)
Comments :
Title=Neon Bugs
Artist=44 X ES (Ger)
Album=Banish Silence (EP)
Tracknumber=02
Year=1995-20-01
Genre=Metal



Register


Go to the top of the page
  Insert nick Quick quote
+Quote Post

Причина закрытия (Хогги 27-01-2023):
Closed TopicStart new topic
1 User(s) are reading this topic (1 Guests and 0 Anonymous Users)
0 Members:

 



- Lo-Fi Version Support form
Copyrights and abuse reports form
Time is now: 5th March 2024 - 14:50:56