Welcome Guest ( Log In | Register )

> Releases Upload / Добавление релизов

Добавить релиз тут / Click here to add release
Рекомендованные обменники / Recommended file shares

> Pentandra - From Below (2023), Melodic Black/Death/Folk Metal
post Jan 23 2023, 23:19:20
Post #1

Правь статус, ####!111
**************
Group: Металариец
Posts: 31,432
Releases: 23178
From: Г.Харьков
On Forums: 10 years 8 months
Thanks: 487795 time(s)
Ukraine


(IMG:http://metalarea.org/images/audiocovers/2023_Jan/acov_tid375604_thumb.jpg)

*Artist: Pentandra
*Album: From Below
*Year: 2023
*Genre: Melodic Black/Death/Folk Metal
*Country: Spain (IMG:http://metalarea.org/forum/style_images/flags/Spain.png)
*Format: mp3@CBR320kbps
*Size: 135MB

Tracklist:
1. Inside Darkness 01:55
2. Midnight Soulfire 04:48
3. Folk Medicine 03:05
4. Ancient's Trail 03:08
5. The Prophecy 04:45
6. Caller of Moonless Nights 03:33
7. Condescendant Sorrow 04:03
8. Al-Kojol 04:04
9. Rumspell 04:41
10. Winter Morning 05:11
11. The Dance 04:43
12. Moonchill 05:55
13. The Path 05:57
14. Outside Darkness 03:04
******************************
Total playing time: 58:52



Technical info
(IMG:http://metalarea.org/images/spectrogram/2023_Jan/a2c803b611989e2278b195b976a4b40f.png)
Input File: 10 - Winter Morning.mp3
Channels : 2
Sample Rate : 44100
Precision : 16-bit
Duration : 00:05:11.00 = 13715100 samples = 23325 CDDA sectors
File Size : 12.5M
Bit Rate : 322k
Sample Encoding: MPEG audio (layer I, II or III)
Comments :
Title=Winter Morning
Artist=Pentandra
Album=From Below
Tracknumber=10
Year=2023-01-20
Genre=Metal
Discnumber=1



Register


Go to the top of the page
  Insert nick Quick quote
+Quote Post
 
Start new topic
Replies (1 - 2)
post Jan 24 2023, 17:48:31
Post #2

Правь статус, ####!111
**************
Group: Металариец
Posts: 31,432
Releases: 23178
From: Г.Харьков
On Forums: 10 years 8 months
Thanks: 487795 time(s)
Ukraine


FLAC (Tracks) 422 mb
Register


Thanks:
Go to the top of the page
  Insert nick Quick quote
+Quote Post
post Jan 26 2023, 05:14:35
Post #3

Group: Дух
Posts: 1
Releases: 0
On Forums: 4 weeks 1 day
Thanks: 0 time(s)



Hi everyone. My friends and I are excited we came across the information here. Ive been scratching my head for this info for weeks and I will be telling my besties to drop by. The other day I was traversing through the net trying to find the right solution to my persistant questions. Now I am entrusted to take great care in whatever method I can. We are getting all blurred out on the signs we are observing. Moreover, I just came back to thank you immediately for such solid answers. This has opened me out of unhealthy habits. Many fabulous creations are seeding in my world. Its really a an incredible area to make new friendships. I will share also that I am developing. Here is my new hobby, take a look my newly created business site:water damage cleanup in del mar ca near BALDWIN PARK CA
Go to the top of the page
  Insert nick Quick quote
+Quote Post

Reply to this topicStart new topic
1 User(s) are reading this topic (1 Guests and 0 Anonymous Users)
0 Members:

 



- Lo-Fi Version Support form
Copyrights and abuse reports form
Time is now: 5th February 2023 - 18:48:01