Welcome Guest ( Log In | Register )

> Releases Upload / Добавление релизов

Добавить релиз тут / Click here to add release
Рекомендованные обменники / Recommended file shares

> Keys Of Henoch - Luciferian Drone Magick [ep] (2022), Black/Drone/Doom Metal
post Jan 24 2023, 03:30:10
Post #1

Правь статус, ####!111
**************
Group: Металариец
Posts: 4,808
Releases: 3238
On Forums: 12 years 2 months
Thanks: 58407 time(s)
Russian Federation


(IMG:https://metalarea.org/images/audiocovers/2023_Jan/acov_tid375605_thumb.jpg)

*Artist: Keys Of Henoch
*Album: Luciferian Drone Magick [ep]
*Year: 2022
*Genre: Black/Drone/Doom Metal
*Country: Germany (IMG:https://metalarea.org/forum/style_images/flags/Germany.png)
*Format: mp3@CBR320kbps
*Size: 53MB

Tracklist:
1.Ascension of Qayin (First Evocation) 22:46
******************************
Total playing time: 22:46



Technical info
(IMG:https://metalarea.org/images/spectrogram/2023_Jan/7569867cf1b49fe62b239eb70eb140e7.png)
Input File: 01 Ascension of Qayin (First Evocation) sample.mp3
Channels : 2
Sample Rate : 44100
Precision : 16-bit
Duration : 00:03:40.54 = 9725682 samples = 16540.3 CDDA sectors
File Size : 8.82M
Bit Rate : 320k
Sample Encoding: MPEG audio (layer I, II or III)
Comments :
Title=Ascension of Qayin (First Evocation)
Artist=Rat Covenant
Album=Luciferian Drone Magick
Tracknumber=1
Year=2023



Register


Go to the top of the page
  Insert nick Quick quote
+Quote Post
 
Start new topic
Replies (1 - 1)
post Jan 25 2023, 20:48:51
Post #2

Четыре Литра
****
Group: Металариец
Posts: 320
Releases: 14
On Forums: 4 years 11 months
Thanks: 1241 time(s)
Unknown


...Yes, I would like a McDonalds Big FLAC with cheese...

This is the two track version:

01 - Ascension of Qayin (First Evocation)
02 - Ascension of Qayin (First Evocation) [Unmastered Bonus]

Register


Go to the top of the page
  Insert nick Quick quote
+Quote Post

Reply to this topicStart new topic
1 User(s) are reading this topic (1 Guests and 0 Anonymous Users)
0 Members:

 



- Lo-Fi Version Support form
Copyrights and abuse reports form
Time is now: 5th February 2023 - 19:01:29