Welcome Guest ( Log In | Register )

> Releases Upload / Добавление релизов

Добавить релиз тут / Click here to add release
Рекомендованные обменники / Recommended file shares

> Almach - Don't Look Back (2023), Oriental/Atmospheric Black Metal (D5)
post Jan 24 2023, 03:33:15
Post #1

Правь статус, ####!111
**************
Group: Металариец
Posts: 4,808
Releases: 3238
On Forums: 12 years 2 months
Thanks: 58408 time(s)
Russian Federation


(IMG:https://metalarea.org/images/audiocovers/2023_Jan/acov_tid375606_thumb.jpg)

*Artist: Almach
*Album: Don't Look Back
*Year: 2023
*Genre: Oriental/Atmospheric Black Metal
*Country: Afghanistan (IMG:https://metalarea.org/forum/style_images/flags/Afghanistan.png)
*Format: mp3@CBR320kbps
*Size: 97MB

Tracklist:
1.Path of the Night (Intro) 02:54
2.Wolf 05:10
3.Three Steps Beyond the Horizon 04:55
4.Don't Look Back 06:20
5.Ritual 04:37
6.When Heaven Is Silent 06:41
7.Immortal Sun 06:07
8.River 06:03
******************************
Total playing time: 42:47



Technical info
(IMG:https://metalarea.org/images/spectrogram/2023_Jan/6c47472b10ed5d123ac065709b9a06a3.png)
Input File: 05_Almach - Ritual.mp3
Channels : 2
Sample Rate : 44100
Precision : 16-bit
Duration : 00:04:37.61 = 12242645 samples = 20820.8 CDDA sectors
File Size : 11.1M
Bit Rate : 320k
Sample Encoding: MPEG audio (layer I, II or III)
Comments :
Title=Ritual
Artist=Almach
Album=Don't Look Back
Tracknumber=05
Year=2023



Register


Go to the top of the page
  Insert nick Quick quote
+Quote Post
 
Start new topic
Replies (1 - 2)
post Jan 24 2023, 18:22:24
Post #2

Common dweller of hell
**************
Group: Металариец
Posts: 4,595
Releases: 12
From: Dnipro
On Forums: 14 years 6 months
Thanks: 1827 time(s)
Ukraine


Thalibian Atmospheric Black Metal (IMG:style_emoticons/default/15.gif) (IMG:style_emoticons/default/15.gif) (IMG:style_emoticons/default/15.gif)


Thanks:
Go to the top of the page
  Insert nick Quick quote
+Quote Post
post Jan 25 2023, 20:08:00
Post #3

Четыре Литра
****
Group: Металариец
Posts: 320
Releases: 14
On Forums: 4 years 11 months
Thanks: 1241 time(s)
Unknown


...Satan created the Heavens and the FLAC...

Register


Thanks:
Go to the top of the page
  Insert nick Quick quote
+Quote Post

Reply to this topicStart new topic
1 User(s) are reading this topic (1 Guests and 0 Anonymous Users)
0 Members:

 



- Lo-Fi Version Support form
Copyrights and abuse reports form
Time is now: 5th February 2023 - 19:13:43