Welcome Guest ( Log In | Register )

> Releases Upload / Добавление релизов

Добавить релиз тут / Click here to add release
Рекомендованные обменники / Recommended file shares

 
Reply to this topicStart new topic
> Stormbreaker - Vengeance [ep] (2023), Symphonic/Melodic Metal
post Jan 24 2023, 04:14:27
Post #1

Правь статус, ####!111
**************
Group: Металариец
Posts: 4,808
Releases: 3238
On Forums: 12 years 2 months
Thanks: 58407 time(s)
Russian Federation


(IMG:https://metalarea.org/images/audiocovers/2023_Jan/acov_tid375607_thumb.jpg)

*Artist: Stormbreaker
*Album: Vengeance [ep]
*Year: 2023
*Genre: Symphonic/Melodic Metal
*Country: Finland (IMG:https://metalarea.org/forum/style_images/flags/Finland.png)
*Format: mp3@CBR320kbps
*Size: 33MB

Tracklist:
1.Stormbreaker 03:08
2.Silence=Death 03:48
3.Throne 03:53
4.The Crimson Eyes 03:24
******************************
Total playing time: 14:13



Technical info
(IMG:https://metalarea.org/images/spectrogram/2023_Jan/aeace712157190b80d90c682c2bea1ad.png)
Input File: 02 - Silence=Death.mp3
Channels : 2
Sample Rate : 44100
Precision : 16-bit
Duration : 00:03:48.00 = 10054800 samples = 17100 CDDA sectors
File Size : 9.33M
Bit Rate : 327k
Sample Encoding: MPEG audio (layer I, II or III)
Comments :
Title=Silence=Death
Artist=Stormbreaker
Album=Vengeance
Tracknumber=2
Year=2023-01-20
Genre=Metal
Discnumber=1



Register


Go to the top of the page
  Insert nick Quick quote
+Quote Post

Reply to this topicStart new topic
2 User(s) are reading this topic (2 Guests and 0 Anonymous Users)
0 Members:

 



- Lo-Fi Version Support form
Copyrights and abuse reports form
Time is now: 5th February 2023 - 18:53:55