Welcome Guest ( Log In | Register )

> Releases Upload / Добавление релизов

Добавить релиз тут / Click here to add release
Рекомендованные обменники / Recommended file shares

> Soldiers Of Forgiveness - The Year Of Capricorn (2021), Heavy/Power Metal
post Jan 24 2023, 06:17:31
Post #1

Правь статус, ####!111
**************
Group: Металариец
Posts: 4,808
Releases: 3238
On Forums: 12 years 2 months
Thanks: 58404 time(s)
Russian Federation


(IMG:https://metalarea.org/images/audiocovers/2023_Jan/acov_tid375609_thumb.jpg)

*Artist: Soldiers Of Forgiveness
*Album: The Year Of Capricorn
*Year: 2021
*Genre: Heavy/Power Metal
*Country: United States (IMG:https://metalarea.org/forum/style_images/flags/United%20States.png)
*Format: mp3@CBR320kbps
*Size: 125MB

Tracklist:
1.The Shadows of Their Gods 02:34
2.Children of The Nameless God 05:08
3.Stop That Game 04:39
4.In The Eyes of Other Gods 05:54
5.The Heart of Pariah 06:16
6.All The Good Times 05:17
7.The Year of Capricorn 10:41
8.Time Will Find You All 02:01
9.Flaming Streets 05:01
10.The Game of Life 06:28
******************************
Total playing time: 53:59



Technical info
(IMG:https://metalarea.org/images/spectrogram/2023_Jan/f672bb78a914cefef2e75c0695ffd2c8.png)
Input File: 03. Stop That Game.mp3
Channels : 2
Sample Rate : 44100
Precision : 16-bit
Duration : 00:04:39.00 = 12303900 samples = 20925 CDDA sectors
File Size : 11.4M
Bit Rate : 326k
Sample Encoding: MPEG audio (layer I, II or III)
Comments :
Title=Stop That Game
Artist=Soldiers Of Forgiveness
Album=The Year of Capricorn
Tracknumber=3/10
Year=2021-06-07
Genre=Heavy/Power Metal
Discnumber=1/1



Register


Go to the top of the page
  Insert nick Quick quote
+Quote Post
 
Start new topic
Replies (1 - 1)
post Jan 24 2023, 18:24:28
Post #2

Common dweller of hell
**************
Group: Металариец
Posts: 4,595
Releases: 12
From: Dnipro
On Forums: 14 years 6 months
Thanks: 1827 time(s)
Ukraine


Heavy/Power Metal - по сути ни одного ни другого тут не наблюдается (IMG:style_emoticons/default/13.gif)
Go to the top of the page
  Insert nick Quick quote
+Quote Post

Reply to this topicStart new topic
1 User(s) are reading this topic (1 Guests and 0 Anonymous Users)
0 Members:

 



- Lo-Fi Version Support form
Copyrights and abuse reports form
Time is now: 5th February 2023 - 17:45:41