Welcome Guest ( Log In | Register )

> Releases Upload / Добавление релизов

Добавить релиз тут / Click here to add release
Рекомендованные обменники / Recommended file shares

 
Reply to this topicStart new topic
> Garden Of Bones - New Beginnings [ep] (2023), Melodic Death Metal
post Jan 24 2023, 06:42:47
Post #1

Правь статус, ####!111
**************
Group: Металариец
Posts: 4,808
Releases: 3238
On Forums: 12 years 2 months
Thanks: 58407 time(s)
Russian Federation


(IMG:https://metalarea.org/images/audiocovers/2023_Jan/acov_tid375610_thumb.jpg)

*Artist: Garden Of Bones
*Album: New Beginnings [ep]
*Year: 2023
*Genre: Melodic Death Metal
*Country: Sweden (IMG:https://metalarea.org/forum/style_images/flags/Sweden.png)
*Format: mp3@CBR320kbps
*Size: 29MB

Tracklist:
1.Soul Perversion 03:45
2.Evil Within 03:52
3.Beneath the sky 03:33
4.Crossing Over 01:43
******************************
Total playing time: 12:53



Technical info
(IMG:https://metalarea.org/images/spectrogram/2023_Jan/9d29c0fe74a8a6ecaaf81b1962ccb002.png)
Input File: 02 - Evil Within.mp3
Channels : 2
Sample Rate : 44100
Precision : 16-bit
Duration : 00:03:52.87 = 10269611 samples = 17465.3 CDDA sectors
File Size : 9.39M
Bit Rate : 323k
Sample Encoding: MPEG audio (layer I, II or III)
Comments :
Title=Evil Within
Artist=Garden of Bones
Album=New Beginnings
Tracknumber=02
Year=2023
Genre=Melodic Death Metal



Register


Go to the top of the page
  Insert nick Quick quote
+Quote Post

Reply to this topicStart new topic
2 User(s) are reading this topic (2 Guests and 0 Anonymous Users)
0 Members:

 



- Lo-Fi Version Support form
Copyrights and abuse reports form
Time is now: 5th February 2023 - 18:32:55