Welcome Guest ( Log In | Register )

> Releases Upload / Добавление релизов

Добавить релиз тут / Click here to add release
Рекомендованные обменники / Recommended file shares

 
Reply to this topicStart new topic
> Torrhen - The Adversary (2023), Heavy Metal
post Jan 24 2023, 07:23:43
Post #1

Правь статус, ####!111
**************
Group: Металариец
Posts: 4,782
Releases: 3212
On Forums: 12 years 2 months
Thanks: 57842 time(s)
Russian Federation


(IMG:https://metalarea.org/images/audiocovers/2023_Jan/acov_tid375612_thumb.jpg)

*Artist: Torrhen
*Album: The Adversary
*Year: 2023
*Genre: Heavy Metal
*Country: Colombia (IMG:https://metalarea.org/forum/style_images/flags/Colombia.png)
*Format: mp3@CBR320kbps
*Size: 93MB

Tracklist:
01.A Frozen Lake 05:56
02.Thrill of Kill 05:28
03.Bloody Beard 06:08
04.The Face of Death 04:27
05.The Adversary 06:48
06.Unholy Fate 05:05
07.Through the Chill Winds 06:23
******************************
Total playing time: 40:15

(IMG:https://metalarea.org/images/youtube.png)

Technical info
(IMG:https://metalarea.org/images/spectrogram/2023_Jan/04f7abf4fa2785c164528c8960c1b273.png)
Input File: 04 - The Face of Death.mp3
Channels : 2
Sample Rate : 44100
Precision : 16-bit
Duration : 00:04:27.22 = 11784578 samples = 20041.8 CDDA sectors
File Size : 10.8M
Bit Rate : 324k
Sample Encoding: MPEG audio (layer I, II or III)
Comments :
Title=The Face of Death
Artist=Torrhen
Album=The Adversary
Tracknumber=4/7
Year=2023



Register


Go to the top of the page
  Insert nick Quick quote
+Quote Post

Reply to this topicStart new topic
1 User(s) are reading this topic (1 Guests and 0 Anonymous Users)
0 Members:

 



- Lo-Fi Version Support form
Copyrights and abuse reports form
Time is now: 3rd February 2023 - 12:29:41