Welcome Guest ( Log In | Register )

> Releases Upload / Добавление релизов

Добавить релиз тут / Click here to add release
Рекомендованные обменники / Recommended file shares

> Messial - Ellipses II: Astronomicon Collapse (2023), Funeral Doom/Death Metal
post Jan 24 2023, 08:14:11
Post #1

Правь статус, ####!111
**************
Group: Металариец
Posts: 4,782
Releases: 3212
On Forums: 12 years 2 months
Thanks: 57830 time(s)
Russian Federation


(IMG:https://metalarea.org/images/audiocovers/2023_Jan/acov_tid375613_thumb.jpg)

*Artist: Messial
*Album: Ellipses II: Astronomicon Collapse
*Year: 2023
*Genre: Funeral Doom/Death Metal
*Country: United States (IMG:https://metalarea.org/forum/style_images/flags/United%20States.png)
*Format: mp3@CBR320kbps
*Size: 87MB

Tracklist:
1.A Simplified Adaptation Of Copernicism (Intro) 01:25
2.Sub-Neural Exclusion Principle Bonded In Astral Nucleus 17:05
3.Thermoclastic Exoplanet Electromagntism 15:14
4.Let Fall The Earth From It's Cluster 03:53
******************************
Total playing time: 37:37



Technical info
(IMG:https://metalarea.org/images/spectrogram/2023_Jan/7e2284ace619ad81d5968441c30d6793.png)
Input File: 03 Thermoclastic Exoplanet Electromagntism sample.mp3
Channels : 2
Sample Rate : 44100
Precision : 16-bit
Duration : 00:02:57.41 = 7823649 samples = 13305.5 CDDA sectors
File Size : 7.10M
Bit Rate : 320k
Sample Encoding: MPEG audio (layer I, II or III)
Comments :
Title=Thermoclastic Exoplanet Electromagntism
Artist=Messial
Album=Ellipses II: Astronomicon Collapse
Tracknumber=03
Year=2023



Register


Go to the top of the page
  Insert nick Quick quote
+Quote Post
 
Start new topic
Replies (1 - 1)
post Jan 24 2023, 17:31:14
Post #2

Шесть Литров
******
Group: Металариец
Posts: 583
Releases: 0
On Forums: 5 years 2 days
Thanks: 189 time(s)
Belarus


Какой-то экспериментальный подвал.
Go to the top of the page
  Insert nick Quick quote
+Quote Post

Reply to this topicStart new topic
1 User(s) are reading this topic (1 Guests and 0 Anonymous Users)
0 Members:

 



- Lo-Fi Version Support form
Copyrights and abuse reports form
Time is now: 3rd February 2023 - 10:32:25