Welcome Guest ( Log In | Register )

> Releases Upload / Добавление релизов

Добавить релиз тут / Click here to add release
Рекомендованные обменники / Recommended file shares

 
Reply to this topicStart new topic
> Internal Fire - Internal Feuer (2023), Progressive Doom/Death Metal
post Jan 24 2023, 08:49:04
Post #1

Правь статус, ####!111
**************
Group: Металариец
Posts: 4,782
Releases: 3212
On Forums: 12 years 2 months
Thanks: 57831 time(s)
Russian Federation


(IMG:https://metalarea.org/images/audiocovers/2023_Jan/acov_tid375614_thumb.jpg)

*Artist: Internal Fire
*Album: Internal Feuer
*Year: 2023
*Genre: Progressive Doom/Death Metal
*Country: Germany (IMG:https://metalarea.org/forum/style_images/flags/Germany.png)
*Format: mp3@CBR320kbps
*Size: 87MB

Tracklist:
01.The Kindling 01:14
02.Internal Feuer 04:52
03.Pathless Earth 03:28
04.Like Ash To The Sky (I Let Go) 04:06
05.Menticide (A Killing Of The Mind) 03:11
06.Your Self 03:00
07.Sunlight & Soil 05:00
08.Inner Space: A Quantum Revelation 04:26
09.Starving The Beast 05:26
10.Progress Of Soul 03:12
******************************
Total playing time: 37:55

(IMG:https://metalarea.org/images/youtube.png)

Technical info
(IMG:https://metalarea.org/images/spectrogram/2023_Jan/4ea78cf01bd23493ea55f2a56ee954b4.png)
Input File: 03 - Pathless Earth.mp3
Channels : 2
Sample Rate : 44100
Precision : 16-bit
Duration : 00:03:28.00 = 9172800 samples = 15600 CDDA sectors
File Size : 8.48M
Bit Rate : 326k
Sample Encoding: MPEG audio (layer I, II or III)
Comments :
Title=Pathless Earth
Artist=Internal Fire
Album=Internal Feuer
Tracknumber=3
Year=2023-01-21
Genre=Metal
Discnumber=1



Register


Go to the top of the page
  Insert nick Quick quote
+Quote Post

Reply to this topicStart new topic
1 User(s) are reading this topic (1 Guests and 0 Anonymous Users)
0 Members:

 



- Lo-Fi Version Support form
Copyrights and abuse reports form
Time is now: 3rd February 2023 - 10:47:33