Welcome Guest ( Log In | Register )

> Releases Upload / Добавление релизов

Добавить релиз тут / Click here to add release
Рекомендованные обменники / Recommended file shares

 
Reply to this topicStart new topic
> Magitech - Inside My Mind [ep] (2023), Epic/Symphonic Metal
post Jan 24 2023, 12:14:14
Post #1

Правь статус, ####!111
**************
Group: Металариец
Posts: 4,782
Releases: 3212
On Forums: 12 years 2 months
Thanks: 57834 time(s)
Russian Federation


(IMG:https://metalarea.org/images/audiocovers/2023_Jan/acov_tid375615_thumb.jpg)

*Artist: Magitech
*Album: Inside My Mind [ep]
*Year: 2023
*Genre: Epic/Symphonic Metal
*Country: Italy (IMG:https://metalarea.org/forum/style_images/flags/Italy.png)
*Format: mp3@CBR320kbps
*Size: 36MB

Tracklist:
01.Inside My Mind 04:11
02.Creeping in the Dark 04:35
03.Mother of Lies 04:27
04.Misty Mountains 02:25
******************************
Total playing time: 15:38

(IMG:https://metalarea.org/images/youtube.png)
(IMG:https://metalarea.org/images/youtube.png)

Technical info
(IMG:https://metalarea.org/images/spectrogram/2023_Jan/4a81041938f7852fa50ea5e934ec70e3.png)
Input File: 02 - Creeping in the Dark.mp3
Channels : 2
Sample Rate : 44100
Precision : 16-bit
Duration : 00:04:35.00 = 12127500 samples = 20625 CDDA sectors
File Size : 11.2M
Bit Rate : 325k
Sample Encoding: MPEG audio (layer I, II or III)
Comments :
Title=Creeping in the Dark
Artist=MagiTech
Album=Inside My Mind
Tracknumber=2
Year=2023-01-20
Genre=Metal
Discnumber=1



Register


Go to the top of the page
  Insert nick Quick quote
+Quote Post

Reply to this topicStart new topic
1 User(s) are reading this topic (1 Guests and 0 Anonymous Users)
0 Members:

 



- Lo-Fi Version Support form
Copyrights and abuse reports form
Time is now: 3rd February 2023 - 11:03:05