Welcome Guest ( Log In | Register )

> Releases Upload / Добавление релизов

Добавить релиз тут / Click here to add release
Рекомендованные обменники / Recommended file shares

 
Reply to this topicStart new topic
> Moonscape - Resurgence [ep] (2020), Progressive Metal (D4)
post Jan 24 2023, 15:39:47
Post #1

Serial Uploader
Group Icon
Group: V.I.P
Posts: 39,559
Releases: 37683
From: Lithuania
On Forums: 14 years 7 months
Thanks: 474253 time(s)
Lithuania


(IMG:https://metalarea.org/images/audiocovers/2023_Jan/acov_tid375706_thumb.jpg)

*Artist: Moonscape
*Album: Resurgence [ep]
*Year: 2020
*Genre: Progressive Metal
*Country: Norway (IMG:https://metalarea.org/forum/style_images/flags/Norway.png)
*Format: mp3@CBR320kbps
*Size: 45MB

Tracklist:
1. Resurgence / This Withering Soul 05:47
2. Fairytale 04:28
3. Thunderstorm 05:06
4. Here with You (remastered) 04:36
******************************
Total playing time: 19:57


Preview 2



Technical info
(IMG:https://metalarea.org/images/spectrogram/2023_Jan/548013e83595ecfa3621e01e702192a2.png)
Input File: 2. Fairytale.mp3
Channels : 2
Sample Rate : 44100
Precision : 16-bit
Duration : 00:04:28.47 = 11839307 samples = 20134.9 CDDA sectors
File Size : 10.8M
Bit Rate : 321k
Sample Encoding: MPEG audio (layer I, II or III)
Comments :
Title=Fairytale
Artist=Moonscape
Album=Resurgence - EP
Year=2020
Genre=metal



Register


Go to the top of the page
  Insert nick Quick quote
+Quote Post

Reply to this topicStart new topic
2 User(s) are reading this topic (2 Guests and 0 Anonymous Users)
0 Members:

 



- Lo-Fi Version Support form
Copyrights and abuse reports form
Time is now: 5th February 2023 - 19:03:34