Welcome Guest ( Log In | Register )

Объявления

* gmail.com упорно продолжает считать почту с нас "unsolicited" и отбивает в том числе и письма активации, поэтому просьба использовать альтернативные почтовые ящики.
------------
* gmail.com continues reject all mail from us as "unsolicited" (activation mails too) therefore please use alternate mail servers.
> Ancient North - Berzerker [ep] (2022), Black Metal (D4)
post Jan 24 2023, 15:43:48
Post #1

Правь статус, ####!111
**************
Group: Металариец
Posts: 9,151
Releases: 7383
On Forums: 13 years 7 months
Thanks: 130024 time(s)
Italy


(IMG:https://metalarea.org/images/audiocovers/2023_Jan/acov_tid375712_thumb.jpg)

*Artist: Ancient North
*Album: Berzerker [ep]
*Year: 2022
*Genre: Black Metal
*Country: United States (IMG:https://metalarea.org/forum/style_images/flags/United%20States.png)
*Format: mp3@CBR320kbps
*Size: 25MB

Tracklist:
1.Intro "KILL!" 00:14
2.Necrophilia 05:25
3.Berzerker 05:19
******************************
Total playing time: 10:58

(IMG:https://metalarea.org/images/youtube.png)

Technical info
(IMG:https://metalarea.org/images/spectrogram/2023_Jan/aa1c828685d97907d5da31bcfdf7baf1.png)
Input File: 02-Necrophilia.mp3
Channels : 2
Sample Rate : 44100
Precision : 16-bit
Duration : 00:05:25.45 = 14352521 samples = 24409 CDDA sectors
File Size : 13.0M
Bit Rate : 320k
Sample Encoding: MPEG audio (layer I, II or III)
Comments :
Title=Necrophilia
Artist=Ancient North
Album=Berzerker
Tracknumber=2/3
Year=2022-05-03
Genre=Black Metal



Register


Go to the top of the page
  Insert nick Quick quote
+Quote Post
 
Start new topic
Replies (1 - 2)
post Jan 25 2023, 19:54:58
Post #2

Восемь Литров
********
Group: Металариец
Posts: 839
Releases: 20
On Forums: 6 years 3 months
Thanks: 3340 time(s)
Unknown


...Bark At The FLAC...

Register


Go to the top of the page
  Insert nick Quick quote
+Quote Post
post Jan 15 2024, 19:42:45
Post #3

Black Death Grind Madness
*******
Group: Металариец
Posts: 743
Releases: 0
From: Cassilandia
On Forums: 16 years 5 days
Thanks: 92 time(s)
Brazil


QUOTE(witchfinder @ Jan 25 2023, 21:54:58) *
...Bark At The FLAC...

Damm link is out
Can u reuploud please thanks
Go to the top of the page
  Insert nick Quick quote
+Quote Post

Reply to this topicStart new topic
1 User(s) are reading this topic (1 Guests and 0 Anonymous Users)
0 Members:

 



- Lo-Fi Version Support form
Copyrights and abuse reports form
Time is now: 24th June 2024 - 05:43:33