Welcome Guest ( Log In | Register )

> Releases Upload / Добавление релизов

Добавить релиз тут / Click here to add release
Рекомендованные обменники / Recommended file shares

 
Reply to this topicStart new topic
> Pugilist - Pugilist [demo] (1994), Death Metal
post Jan 24 2023, 15:53:50
Post #1

Подвал
**************
Group: Металариец
Posts: 18,419
Releases: 10527
From: Far East (Khabarovsk)
On Forums: 14 years 1 week
Thanks: 123523 time(s)
Russian Federation


(IMG:http://metalarea.org/images/audiocovers/2023_Jan/acov_tid375713_thumb.jpg)

*Artist: Pugilist
*Album: Pugilist [demo]
*Year: 1994
*Genre: Death Metal
*Country: United States (IMG:http://metalarea.org/forum/style_images/flags/United%20States.png)
*Format: mp3@CBR320kbps
*Size: 27MB

Tracklist:
1. Bloody Orifice 04:10
2. Violating The Family Plot 03:36
3. Gods Of Evil 05:17
******************************
Total playing time: 13:03



Extended info
Band from Colorado.
Recorded at Tonart Music, September 1994.
Thanx bro uaforever_ua for the FLAC!


Technical info
(IMG:http://metalarea.org/images/spectrogram/2023_Jan/794c38d56fca3f78e40e6adbbd5f0031.png)
Input File: 01-Bloody Orifice.mp3
Channels : 2
Sample Rate : 44100
Precision : 16-bit
Duration : 00:04:12.40 = 11130928 samples = 18930.1 CDDA sectors
File Size : 10.3M
Bit Rate : 325k
Sample Encoding: MPEG audio (layer I, II or III)
Comments :
Title=Bloody Orifice
Artist=Pugilist
Album=Pugilist Demo
Tracknumber=01
Year=1994
Genre=Death Metal



Register


Go to the top of the page
  Insert nick Quick quote
+Quote Post

Reply to this topicStart new topic
2 User(s) are reading this topic (2 Guests and 0 Anonymous Users)
0 Members:

 



- Lo-Fi Version Support form
Copyrights and abuse reports form
Time is now: 5th February 2023 - 17:24:25