Welcome Guest ( Log In | Register )

> Releases Upload / Добавление релизов

Добавить релиз тут / Click here to add release
Рекомендованные обменники / Recommended file shares

 
Reply to this topicStart new topic
> Fractures In The Sky - The Otherside: Part 1 [ep] (2021), Progressive Metal
post Jan 24 2023, 16:03:11
Post #1

Serial Uploader
Group Icon
Group: V.I.P
Posts: 39,559
Releases: 37683
From: Lithuania
On Forums: 14 years 7 months
Thanks: 474129 time(s)
Lithuania


(IMG:https://metalarea.org/images/audiocovers/2023_Jan/acov_tid375714_thumb.jpg)

*Artist: Fractures In The Sky
*Album: The Otherside: Part 1 [ep]
*Year: 2021
*Genre: Progressive Metal
*Country: United Kingdom (IMG:https://metalarea.org/forum/style_images/flags/United%20Kingdom.png)
*Format: mp3@CBR320kbps
*Size: 65MB

Tracklist:
1. I 01:36
2. The Ghost of Me 05:49
3. Failsafe 05:25
4. The Otherside 05:15
5. Sound the Siren 06:54
6. Interlude 03:31
******************************
Total playing time: 28:30


Preview 2
(IMG:https://metalarea.org/images/youtube.png)

Technical info
(IMG:https://metalarea.org/images/spectrogram/2023_Jan/251ef46cdcb4d7f6d2d24369f4f4a1e7.png)
Input File: 02. The Ghost of Me.mp3
Channels : 2
Sample Rate : 44100
Precision : 16-bit
Duration : 00:05:49.64 = 15419212 samples = 26223.1 CDDA sectors
File Size : 14.0M
Bit Rate : 321k
Sample Encoding: MPEG audio (layer I, II or III)
Comments :
Title=The Ghost of Me
Artist=Fractures in the Sky
Album=The Otherside, Pt. 1
Tracknumber=2
Year=2021



Register


Go to the top of the page
  Insert nick Quick quote
+Quote Post

Reply to this topicStart new topic
1 User(s) are reading this topic (1 Guests and 0 Anonymous Users)
0 Members:

 



- Lo-Fi Version Support form
Copyrights and abuse reports form
Time is now: 3rd February 2023 - 11:12:40