Welcome Guest ( Log In | Register )

> Releases Upload / Добавление релизов

Добавить релиз тут / Click here to add release
Рекомендованные обменники / Recommended file shares

 
Reply to this topicStart new topic
> Mean Machine - I Wanna Die By D-Beat & Four Roses [ep] (2022), Heavy/Speed Metal/Punk (D5)
post Jan 24 2023, 16:10:16
Post #1

Правь статус, 616
**************
Group: Металариец
Posts: 8,552
Releases: 6827
From: 55°35’N 38°08’E
On Forums: 14 years 6 months
Thanks: 123449 time(s)
Russian Federation


(IMG:https://metalarea.org/images/audiocovers/2023_Jan/acov_tid375715_thumb.jpg)

*Artist: Mean Machine
*Album: I Wanna Die By D-Beat & Four Roses [ep]
*Year: 2022
*Genre: Heavy/Speed Metal/Punk
*Country: Spain (IMG:https://metalarea.org/forum/style_images/flags/Spain.png)
*Format: mp3@CBR320kbps
*Size: 26MB

Tracklist:
1.Murder 180 03:24
2.Threat For The Liver 02:11
3.Wake Up In Jail 03:17
4.I Wanna Die By D-Beat & Four Roses 02:03
******************************
Total playing time: 10:55



(IMG:https://metalarea.org/images/youtube.png)

Technical info
(IMG:https://metalarea.org/images/spectrogram/2023_Jan/d2411c034b662501d46a31aa2c2d0b09.png)
Input File: 04 I Wanna Die By D-Beat & Four Roses.mp3
Channels : 2
Sample Rate : 44100
Precision : 16-bit
Duration : 00:02:03.07 = 5427475 samples = 9230.4 CDDA sectors
File Size : 5.09M
Bit Rate : 331k
Sample Encoding: MPEG audio (layer I, II or III)
Comments :
Title=I Wanna Die By D-Beat & Four Roses
Artist=Mean Machine
Album=I Wanna Die By D-Beat & Four Roses
Tracknumber=4
Year=2022
Genre=Metalpunk



Register


Go to the top of the page
  Insert nick Quick quote
+Quote Post

Reply to this topicStart new topic
1 User(s) are reading this topic (1 Guests and 0 Anonymous Users)
0 Members:

 



- Lo-Fi Version Support form
Copyrights and abuse reports form
Time is now: 3rd February 2023 - 11:23:12