Welcome Guest ( Log In | Register )

> Releases Upload / Добавление релизов

Добавить релиз тут / Click here to add release
Рекомендованные обменники / Recommended file shares

 
Reply to this topicStart new topic
> Fractures In The Sky - Into The Void (2020), Instrumental/Progressive Metal
post Jan 24 2023, 16:23:25
Post #1

Serial Uploader
Group Icon
Group: V.I.P
Posts: 39,559
Releases: 37683
From: Lithuania
On Forums: 14 years 7 months
Thanks: 474251 time(s)
Lithuania


(IMG:https://metalarea.org/images/audiocovers/2023_Jan/acov_tid375717_thumb.jpg)

*Artist: Fractures In The Sky
*Album: Into The Void
*Year: 2020
*Genre: Instrumental/Progressive Metal
*Country: United Kingdom (IMG:https://metalarea.org/forum/style_images/flags/United%20Kingdom.png)
*Format: mp3@CBR320kbps
*Size: 103MB

Tracklist:
1. The Void 01:41
2. Equinox Overture 03:39
3. Voyage into the Unknown 06:06
4. Parallax 06:56
5. Edge of the Earth 02:46
6. 13 06:53
7. Dead Space 03:16
8. Pale Blue Dot 08:21
9. Duality 05:31
******************************
Total playing time: 45:09


Preview 2

(IMG:https://metalarea.org/images/youtube.png)

Extended info
Exclusive for Metalarea.org


Technical info
(IMG:https://metalarea.org/images/spectrogram/2023_Jan/506c02514122a28c4b49dc8790ed76bf.png)
Input File: 02. Equinox Overture.mp3
Channels : 2
Sample Rate : 44100
Precision : 16-bit
Duration : 00:03:39.55 = 9681935 samples = 16465.9 CDDA sectors
File Size : 8.81M
Bit Rate : 321k
Sample Encoding: MPEG audio (layer I, II or III)
Comments :
Title=Equinox Overture
Artist=Fractures in the Sky
Album=Into the Void
Tracknumber=2
Year=2020



Register


Go to the top of the page
  Insert nick Quick quote
+Quote Post

Reply to this topicStart new topic
2 User(s) are reading this topic (2 Guests and 0 Anonymous Users)
0 Members:

 



- Lo-Fi Version Support form
Copyrights and abuse reports form
Time is now: 5th February 2023 - 18:15:52