Welcome Guest ( Log In | Register )

> Releases Upload / Добавление релизов

Добавить релиз тут / Click here to add release
Рекомендованные обменники / Recommended file shares

 
Reply to this topicStart new topic
> Forgotten Soul - Satanic War Kult [ep] (2021), Black/Thrash Metal/Punk (D12)
post Jan 24 2023, 16:25:27
Post #1

Правь статус, 616
**************
Group: Металариец
Posts: 8,552
Releases: 6827
From: 55°35’N 38°08’E
On Forums: 14 years 6 months
Thanks: 123449 time(s)
Russian Federation


(IMG:https://metalarea.org/images/audiocovers/2023_Jan/acov_tid375718_thumb.jpg)

*Artist: Forgotten Soul
*Album: Satanic War Kult [ep]
*Year: 2021
*Genre: Black/Thrash Metal/Punk
*Country: Chile (IMG:https://metalarea.org/forum/style_images/flags/Chile.png)
*Format: mp3@CBR320kbps
*Size: 56MB

Tracklist:
1. Intro - Whore & Cunt 03:00
2. Wasteland 02:23
3. Black Punks 03:13
4. Alcoholic Seduction 03:52
5. Demoniac 04:19
6. Satanic War Kult 03:40
7. Cop Suck My Cock 03:16
******************************
Total playing time: 23:43



(IMG:https://metalarea.org/images/youtube.png)

Technical info
(IMG:https://metalarea.org/images/spectrogram/2023_Jan/e8ebb7f45e78ef54022cca54535ea828.png)
Input File: 02 Wasteland.mp3
Channels : 2
Sample Rate : 44100
Precision : 16-bit
Duration : 00:02:23.89 = 6345681 samples = 10792 CDDA sectors
File Size : 5.98M
Bit Rate : 332k
Sample Encoding: MPEG audio (layer I, II or III)
Comments :
Title=Wasteland
Artist=Forgotten Soul
Album=Satanic War Kult
Tracknumber=2
Year=2021
Genre=Metalpunk



Register


Go to the top of the page
  Insert nick Quick quote
+Quote Post

Reply to this topicStart new topic
1 User(s) are reading this topic (1 Guests and 0 Anonymous Users)
0 Members:

 



- Lo-Fi Version Support form
Copyrights and abuse reports form
Time is now: 3rd February 2023 - 12:00:52