Welcome Guest ( Log In | Register )

> Septembrist - Diabolic Delusions [demo] (1995), Death Metal
post Jan 24 2023, 16:26:30
Post #1

Подвал
**************
Group: Металариец
Posts: 18,406
Releases: 10515
From: Far East (Khabarovsk)
On Forums: 14 years 1 week
Thanks: 123407 time(s)
Russian Federation


(IMG:http://metalarea.org/images/audiocovers/2023_Jan/acov_tid375719_thumb.jpg)

*Artist: Septembrist
*Album: Diabolic Delusions [demo]
*Year: 1995
*Genre: Death Metal
*Country: United States (IMG:http://metalarea.org/forum/style_images/flags/United%20States.png)
*Format: mp3@CBR192kbps
*Size: 34MB

Tracklist:
1. Unburied Remains 04:57
2. Possessed By Sickness 03:36
3. Skullfucked 02:36
4. Murder Is Only Foreplay 05:05
******************************
Total playing time: 16:14

Extended info
Band from Madison, Wisconsin.
Thanx uaforever_ua for the demo!


Technical info
(IMG:http://metalarea.org/images/spectrogram/2023_Jan/36d059f4a0485b97f9003e46c3e28d50.png)
Input File: 01-Unburied Remains.mp3
Channels : 2
Sample Rate : 44100
Precision : 16-bit
Duration : 00:04:47.67 = 12686159 samples = 21575.1 CDDA sectors
File Size : 11.7M
Bit Rate : 326k
Sample Encoding: MPEG audio (layer I, II or III)
Comments :
Title=Unburied Remains
Artist=Septembrist
Album=Diabolic Delusions (Demo)
Tracknumber=01
Year=1995
Genre=Death Metal



Register


Go to the top of the page
  Insert nick Quick quote
+Quote Post
 
Start new topic
Replies (1 - 1)
post Jan 24 2023, 20:02:46
Post #2

Пять Литров
*****
Group: Металариец
Posts: 459
Releases: 193
On Forums: 14 years 10 months
Thanks: 2473 time(s)
Brazil


Thanks been looking for this forever!
Go to the top of the page
  Insert nick Quick quote
+Quote Post

Reply to this topicStart new topic
1 User(s) are reading this topic (1 Guests and 0 Anonymous Users)
0 Members:

 



- Lo-Fi Version Support form
Copyrights and abuse reports form
Time is now: 3rd February 2023 - 12:14:32