Welcome Guest ( Log In | Register )

> Releases Upload / Добавление релизов

Добавить релиз тут / Click here to add release
Рекомендованные обменники / Recommended file shares

 
Reply to this topicStart new topic
> Pyfyxfyru - Universal Satanism [ep] (2022), Raw Black Metal
post Jan 24 2023, 16:32:36
Post #1

Правь статус, ####!111
**************
Group: Металариец
Posts: 4,782
Releases: 3212
On Forums: 12 years 2 months
Thanks: 57839 time(s)
Russian Federation


(IMG:https://metalarea.org/images/audiocovers/2023_Jan/acov_tid375721_thumb.jpg)

*Artist: Pyfyxfyru
*Album: Universal Satanism [ep]
*Year: 2022
*Genre: Raw Black Metal
*Country: United States (IMG:https://metalarea.org/forum/style_images/flags/United%20States.png)
*Format: mp3@CBR320kbps
*Size: 58MB

Tracklist:
1.Demon Drinks Blood 05:37
2.Heavens Gate 04:01
3.The Name 04:27
4.New Movement of Universal Satanism 06:28
5.Prayer For Murder 04:50
******************************
Total playing time: 25:23



Technical info
(IMG:https://metalarea.org/images/spectrogram/2023_Jan/e8490cb1a7c455091d785fae5e6bad50.png)
Input File: 02-Heavens Gate.mp3
Channels : 2
Sample Rate : 44100
Precision : 16-bit
Duration : 00:04:01.81 = 10663601 samples = 18135.4 CDDA sectors
File Size : 9.68M
Bit Rate : 320k
Sample Encoding: MPEG audio (layer I, II or III)
Comments :
Title=Heavens Gate
Artist=Pyfyxfyru
Album=Universal Satanism
Tracknumber=2/5
Year=2022-04-01
Genre=Black Metal



Register


Go to the top of the page
  Insert nick Quick quote
+Quote Post

Reply to this topicStart new topic
1 User(s) are reading this topic (1 Guests and 0 Anonymous Users)
0 Members:

 



- Lo-Fi Version Support form
Copyrights and abuse reports form
Time is now: 3rd February 2023 - 11:39:49