Welcome Guest ( Log In | Register )

> Releases Upload / Добавление релизов

Добавить релиз тут / Click here to add release
Рекомендованные обменники / Recommended file shares

 
Reply to this topicStart new topic
> Septembrist - Septembrist [demo] (1994), Death Metal
post Jan 24 2023, 16:34:47
Post #1

Подвал
**************
Group: Металариец
Posts: 18,406
Releases: 10515
From: Far East (Khabarovsk)
On Forums: 14 years 1 week
Thanks: 123407 time(s)
Russian Federation


(IMG:http://metalarea.org/images/audiocovers/2023_Jan/acov_tid375722_thumb.jpg)

*Artist: Septembrist
*Album: Septembrist [demo]
*Year: 1994
*Genre: Death Metal
*Country: United States (IMG:http://metalarea.org/forum/style_images/flags/United%20States.png)
*Format: mp3@CBR320kbps
*Size: 22MB

Tracklist:
1. Cannibalistic Cravings 03:05
2. Rot In Purgatory 02:10
3. Devourment 02:56
4. Stabbed In The Back 03:00
******************************
Total playing time: 11:11

Extended info
Band from Madison, Wisconsin.
Recorded at Navajo Road Studio in Milwaukee, Wisconsin on December 26-27, 1994.
Additional recording, mixing, and engineering by Septembrist.
Thanx uaforever_ua for this demo!


Technical info
(IMG:http://metalarea.org/images/spectrogram/2023_Jan/2755f871e7d176b76476c4f3d1a0fa65.png)
Input File: 01-Cannibalistic Cravings.mp3
Channels : 2
Sample Rate : 44100
Precision : 16-bit
Duration : 00:03:06.05 = 8204805 samples = 13953.8 CDDA sectors
File Size : 7.66M
Bit Rate : 329k
Sample Encoding: MPEG audio (layer I, II or III)
Comments :
Title=Cannibalistic Cravings
Artist=Septembrist
Album=Septembrist (Demo)
Tracknumber=01
Year=1994
Genre=Death Metal



Register


Go to the top of the page
  Insert nick Quick quote
+Quote Post

Reply to this topicStart new topic
1 User(s) are reading this topic (1 Guests and 0 Anonymous Users)
0 Members:

 



- Lo-Fi Version Support form
Copyrights and abuse reports form
Time is now: 3rd February 2023 - 11:53:02