Welcome Guest ( Log In | Register )

> Releases Upload / Добавление релизов

Добавить релиз тут / Click here to add release
Рекомендованные обменники / Recommended file shares

 
Reply to this topicStart new topic
> Fractures In The Sky - Dagon [ep] (2019), Instrumental/Progressive Metal (D5)
post Jan 24 2023, 17:02:11
Post #1

Serial Uploader
Group Icon
Group: V.I.P
Posts: 39,559
Releases: 37683
From: Lithuania
On Forums: 14 years 7 months
Thanks: 474253 time(s)
Lithuania


(IMG:https://metalarea.org/images/audiocovers/2023_Jan/acov_tid375725_thumb.jpg)

*Artist: Fractures In The Sky
*Album: Dagon [ep]
*Year: 2019
*Genre: Instrumental/Progressive Metal
*Country: United Kingdom (IMG:https://metalarea.org/forum/style_images/flags/United%20Kingdom.png)
*Format: mp3@CBR320kbps
*Size: 32MB

Tracklist:
1. Intro 00:51
2. Dagon 03:15
3. Lost at Sea 04:25
4. Mind Control 04:06
5. Abyss 01:30
******************************
Total playing time: 14:07


Preview 2

(IMG:https://metalarea.org/images/youtube.png)

Extended info
Exclusive for Metalarea.org


Technical info
(IMG:https://metalarea.org/images/spectrogram/2023_Jan/d2314d62a3508877841f1bc2b60bfdd6.png)
Input File: 03. Lost at Sea.mp3
Channels : 2
Sample Rate : 44100
Precision : 16-bit
Duration : 00:04:25.68 = 11716488 samples = 19926 CDDA sectors
File Size : 10.7M
Bit Rate : 321k
Sample Encoding: MPEG audio (layer I, II or III)
Comments :
Title=Lost at Sea
Artist=Fractures in the Sky
Album=Dagon
Tracknumber=3
Year=2019



Register


Go to the top of the page
  Insert nick Quick quote
+Quote Post

Reply to this topicStart new topic
2 User(s) are reading this topic (2 Guests and 0 Anonymous Users)
0 Members:

 



- Lo-Fi Version Support form
Copyrights and abuse reports form
Time is now: 5th February 2023 - 19:04:05