Welcome Guest ( Log In | Register )

> Releases Upload / Добавление релизов

Добавить релиз тут / Click here to add release
Рекомендованные обменники / Recommended file shares

> Blasphemerection - The Origin Of Evil (2022), Blackened Death Metal
post Jan 24 2023, 18:44:02
Post #1

Правь статус, ####!111
**************
Group: Металариец
Posts: 31,415
Releases: 23168
From: Г.Харьков
On Forums: 10 years 8 months
Thanks: 487243 time(s)
Ukraine


(IMG:http://metalarea.org/images/audiocovers/2023_Jan/acov_tid375727_thumb.jpg)

*Artist: Blasphemerection
*Album: The Origin Of Evil
*Year: 2022
*Genre: Blackened Death Metal
*Country: Mexico (IMG:http://metalarea.org/forum/style_images/flags/Mexico.png)
*Format: mp3@CBR320kbps
*Size: 74MB

Tracklist:
1. he Shining of the Fireballs over the Water
2. The Portal to the Other World
3. The Arrival of the Witches
4. Basilisk... The King of the Snakes
5. Toad Spell
6. Sorcery... The Snake of God
7. Orgy in the Mount Sinai
8. Satan... The Eternal Shepherd of Souls
9. The Solemn Embrace of the Devil
******************************
Total playing time: 32:31



Extended info
Blasphemator Guitars, Bass
Profanador Vocals


Technical info
(IMG:http://metalarea.org/images/spectrogram/2023_Jan/26d3585c0a49932651adee0bbdf8e6cb.png)
Input File: Blasphemerection - The Origin of Evil - 04. Basilisk... The King of the Snakes.mp3
Channels : 2
Sample Rate : 44100
Precision : 16-bit
Duration : 00:04:41.93 = 12433201 samples = 21144.9 CDDA sectors
File Size : 11.4M
Bit Rate : 323k
Sample Encoding: MPEG audio (layer I, II or III)
Comments :
Title=Basilisk... The King of the Snakes
Artist=Blasphemerection
Album=The Origin of Evil
Tracknumber=4/9
Year=2022
Genre=Metal



Register


Go to the top of the page
  Insert nick Quick quote
+Quote Post
 
Start new topic
Replies (1 - 1)
post Jan 24 2023, 20:53:21
Post #2

Правь статус, ####!111
**************
Group: Металариец
Posts: 31,415
Releases: 23168
From: Г.Харьков
On Forums: 10 years 8 months
Thanks: 487243 time(s)
Ukraine


FLAC (Tracks) 259 mb
Register


Go to the top of the page
  Insert nick Quick quote
+Quote Post

Reply to this topicStart new topic
1 User(s) are reading this topic (1 Guests and 0 Anonymous Users)
0 Members:

 



- Lo-Fi Version Support form
Copyrights and abuse reports form
Time is now: 3rd February 2023 - 10:56:11