Welcome Guest ( Log In | Register )

> Forum rules / Правила раздела

Here go releases which can't go to New releases forums due lack of information, stolen links or incorrect data and just founded in other sites links with minimum info. Reissue of this releases through Add release form with added/corrected data, info and own links highly welcomed.

Сюда уходят релизы, не пропущенные в основные релизные форумы по причинам отсутствия, недостаточности или неверности/некорректности сопровождающей информации, содержащие ссылки, указывающие на файлы, залитые не автором темы, а так же просто найденные где-то ссылки с минимумом информации. Переоформление тем отсюда через форму Добавления релиза с перезаливкой ссылок крайне приветствуется.

> Two Feathers - Metal: Hellsinger [ost] (2022), Melodic Death Metal
post Jan 24 2023, 18:50:44
Post #1

local
**************
Group: Металариец
Posts: 2,827
Releases: 260
On Forums: 16 years 2 months
Thanks: 7472 time(s)
Unknown


(IMG:http://metalarea.org/images/audiocovers/2023_Jan/acov_tid375728_thumb.jpg)

*Artist: Two Feathers
*Album: Metal: Hellsinger [ost]
*Year: 2022
*Genre: Melodic Death Metal
*Country: Sweden (IMG:http://metalarea.org/forum/style_images/flags/Sweden.png)
*Format: mp3@CBR192kbps
*Size: 102MB

Tracklist:
1. Main Menu Music 03:16
2. Through You (ft. Mikael Stanne of Dark ​Tranquillity) 02:53
3. This Is the End (ft. Mikael Stanne from ​Dark Tranquillity) 05:54
4. Blood and Law (ft. Mikael Stanne of Dark ​Tranquillity) 07:21
5. Stygia (ft. Alissa White-Gluz of Arch ​Enemy) 06:06
6. Infernal Invocation I - Hopes and Fears ​(ft. Mikael Stanne from ​Dark Tranquillity) 01:33
7. Burial at Night (ft. Tatiana Shmayluk of ​Jinjer) 05:50
8. Infernal Invocation II - Defiance ft. ​Mikael Stanne (ft. Mikael Stanne from ​Dark Tranquillity) 01:34
9. This Devastation (ft. Matt Heafy of ​Trivium) 06:31
10. Infernal Invocation III - Dreaming in ​Distortion (ft. Mikael Stanne from ​Dark Tranquillity) 01:58
11. Poetry of Cinder (ft. James Dorton of ​Black Crown Initiate) 05:08
12. Dissolution (ft. Björn Speed Strid from ​Soilwork) 05:56
13. Acheron (ft. Randy Blythe of Lamb of God) 05:14
14. Silent No More (ft. Dennis Lyxzén of ​Refused and INVSN) 06:49
15. No Tomorrow (ft. Serj Tankian from System ​of a Down) 06:58
******************************
Total playing time: 1:13:01

Extended info


Two Feathers:
Nicklas Hjertberg - Rhythm Guitar, OST Composer
Elvira Bjorkman - Bass, OST composer
Adam Janzi (VOLA) - Drums
Dino Medanhodzic - Lead Guitar, OST Mix & Master


Technical info
(IMG:http://metalarea.org/images/spectrogram/2023_Jan/b3e2846d311736cfeaf7df9cf5a8d123.png)
Input File: 02 - Through You (ft. Mikael Stanne of Dark Tranquillity).mp3
Channels : 2
Sample Rate : 48000
Precision : 16-bit
Duration : 00:02:37.66 = 7567728 samples ~ 11824.6 CDDA sectors
File Size : 3.88M
Bit Rate : 197k
Sample Encoding: MPEG audio (layer I, II or III)
Comments :
Title=Through You (ft. Mikael Stanne of Dark Tranquillity)
Artist=Two Feathers
Album=Metal: Hellsinger OST
Tracknumber=2
Year=2022
Genre=Metal



Register
Go to the top of the page
  Insert nick Quick quote
+Quote Post
 
Start new topic
Replies (1 - 2)
post Jan 24 2023, 21:46:30
Post #2

local
**************
Group: Металариец
Posts: 2,827
Releases: 260
On Forums: 16 years 2 months
Thanks: 7472 time(s)
Unknown


Почему попало в Find?
Go to the top of the page
  Insert nick Quick quote
+Quote Post
post Jan 24 2023, 22:16:56
Post #3

Правь статус, ####!111
**************
Group: Металариец
Posts: 52,664
Releases: 967
On Forums: 13 years 8 months
Thanks: 49461 time(s)
Russian Federation


Станне то скока навалили, неужто его вокал настолько хорош (IMG:style_emoticons/default/crazy.gif)
Go to the top of the page
  Insert nick Quick quote
+Quote Post

Reply to this topicStart new topic
3 User(s) are reading this topic (3 Guests and 0 Anonymous Users)
0 Members:

 



- Lo-Fi Version Support form
Copyrights and abuse reports form
Time is now: 3rd February 2023 - 11:06:27