Welcome Guest ( Log In | Register )

> Releases Upload / Добавление релизов

Добавить релиз тут / Click here to add release
Рекомендованные обменники / Recommended file shares

> ...And Oceans - As In Gardens, So In Tombs (2023), Symphonic Black Metal
post Jan 24 2023, 23:37:47
Post #1

Правь статус, ####!111
**************
Group: Металариец
Posts: 31,432
Releases: 23178
From: Г.Харьков
On Forums: 10 years 8 months
Thanks: 487797 time(s)
Ukraine


(IMG:http://metalarea.org/images/audiocovers/2023_Jan/acov_tid375730_thumb.jpg)

*Artist: ...And Oceans
*Album: As In Gardens, So In Tombs
*Year: 2023
*Genre: Symphonic Black Metal
*Country: Finland (IMG:http://metalarea.org/forum/style_images/flags/Finland.png)
*Format: mp3@CBR320kbps
*Size: 117MB

Tracklist:
1. As in Gardens, So in Tombs 04:17
2. The Collector and His Construct 04:36
3. Within Fire and Crystal 05:52
4. Carried on Lead Wings 05:14
5. Likt törnen genom kött 05:10
6. Cloud Heads 04:19
7. Wine into Water 03:57
8. Inverse Magnification Matrix 04:50
9. The Earth Canvas 04:11
10. Ambivalent God 07:44
******************************
Total playing time: 50:10




Extended info
T Guitars
Teemu Saari Guitars
Kauko Kuusisalo Drums
Antti Simonen Keyboards
Mathias Lillmåns Vocals
Pyry Hanski Bass


Technical info
(IMG:http://metalarea.org/images/spectrogram/2023_Jan/2fe3d8cb7339fe96cb2d0283209bbada.png)
Input File: 10 - Ambivalent God.mp3
Channels : 2
Sample Rate : 44100
Precision : 16-bit
Duration : 00:07:43.47 = 20438895 samples = 34760 CDDA sectors
File Size : 18.8M
Bit Rate : 324k
Sample Encoding: MPEG audio (layer I, II or III)
Comments :
Title=Ambivalent God
Artist=...and Oceans
Album=As in Gardens, So in Tombs
Tracknumber=10
Year=2023



Register


Go to the top of the page
  Insert nick Quick quote
+Quote Post
3 Pages V  < 1 2 3  
Start new topic
Replies (60 - 61)
post Jan 29 2023, 16:09:13
Post #61

кручу наждак
**************
Group: Металариец
Posts: 5,884
Releases: 107
From: Самара
On Forums: 12 years 8 months
Thanks: 4622 time(s)
Russian Federation


ЦИТАТА(as71 @ Jan 29 2023, 15:37:34) *
Я, походу, единственный что ли, кому альбом не понравился? Сплошь хвалебные отзывы, а я 3 раза прослушал и ровным счетом ничего примечательного в нем не нашел, хотя старался.

Ровно такие же мысли были, когда читал каменты к прошлому альбому.
Go to the top of the page
  Insert nick Quick quote
+Quote Post
post Today, 04:01:55
Post #62

Group: Дух
Posts: 1
Releases: 0
On Forums: 4 years 11 months
Thanks: 0 time(s)
Unknown



это слышно низко.
Go to the top of the page
  Insert nick Quick quote
+Quote Post

3 Pages V  < 1 2 3
Reply to this topicStart new topic
2 User(s) are reading this topic (2 Guests and 0 Anonymous Users)
0 Members:

 



- Lo-Fi Version Support form
Copyrights and abuse reports form
Time is now: 5th February 2023 - 19:10:44