Welcome Guest ( Log In | Register )

> Releases Upload / Добавление релизов

Добавить релиз тут / Click here to add release
Рекомендованные обменники / Recommended file shares

> Menace - Open Fire (2023), Old School Thrash Metal
post Jan 25 2023, 02:56:15
Post #1

Правь статус, ####!111
**************
Group: Металариец
Posts: 31,432
Releases: 23178
From: Г.Харьков
On Forums: 10 years 8 months
Thanks: 487791 time(s)
Ukraine


(IMG:http://metalarea.org/images/audiocovers/2023_Jan/acov_tid375734_thumb.jpg)

*Artist: Menace
*Album: Open Fire
*Year: 2023
*Genre: Old School Thrash Metal
*Country: Greece (IMG:http://metalarea.org/forum/style_images/flags/Greece.png)
*Format: mp3@CBR320kbps
*Size: 98MB

Tracklist:
1. Narcissist
2. Open Fire
3. Lunatic Perspective
4. Without Morality
5. Thy Hymn
6. Eye of the Storm
7. Existential Slavery
8. Uncensored Truth
******************************
Total playing time: 42:35



Extended info
Stelios Kartsonis: Vocals/Guitars
Stavros Nikandros: Guitars
Michael Evdemon: Bass
George Kollias: Drums



Technical info
(IMG:http://metalarea.org/images/spectrogram/2023_Jan/a0dc6fcb1de5210f8eb3d9fe7792eae6.png)
Input File: 07 - Existential Slavery.mp3
Channels : 2
Sample Rate : 44100
Precision : 16-bit
Duration : 00:07:06.55 = 18810899 samples = 31991.3 CDDA sectors
File Size : 17.1M
Bit Rate : 320k
Sample Encoding: MPEG audio (layer I, II or III)
Comments :
Title=Existential Slavery
Artist=Menace
Album=Open Fire
Tracknumber=7
Year=2023
Genre=Thrash Metal



Register


Go to the top of the page
  Insert nick Quick quote
+Quote Post
 
Start new topic
Replies (1 - 2)
post Jan 26 2023, 11:16:50
Post #2

Два кусочека кавбаски
***
Group: Завсегдатай
Posts: 286
Releases: 29
From: Колыбель металла
On Forums: 15 years 3 months
Thanks: 416 time(s)
Russian Federation


прямое наследие Чака - причем тут олдскултреш


Thanks:
(1) DarkHorde,
Go to the top of the page
  Insert nick Quick quote
+Quote Post
post Feb 1 2023, 18:07:30
Post #3

Три Литра
***
Group: Завсегдатай
Posts: 226
Releases: 0
On Forums: 11 years 8 months
Thanks: 60 time(s)
Lithuania


Death worship clone
Go to the top of the page
  Insert nick Quick quote
+Quote Post

Reply to this topicStart new topic
2 User(s) are reading this topic (2 Guests and 0 Anonymous Users)
0 Members:

 



- Lo-Fi Version Support form
Copyrights and abuse reports form
Time is now: 5th February 2023 - 17:53:46