Welcome Guest ( Log In | Register )

> Releases Upload / Добавление релизов

Добавить релиз тут / Click here to add release
Рекомендованные обменники / Recommended file shares

> Hellium - One Way To Dead End (2022), Thrash/Death Metal
post Jan 25 2023, 03:31:11
Post #1

Правь статус, ####!111
**************
Group: Металариец
Posts: 31,432
Releases: 23178
From: Г.Харьков
On Forums: 10 years 8 months
Thanks: 487792 time(s)
Ukraine


(IMG:http://metalarea.org/images/audiocovers/2023_Jan/acov_tid375735_thumb.jpg)

*Artist: Hellium
*Album: One Way To Dead End
*Year: 2022
*Genre: Thrash/Death Metal
*Country: Poland (IMG:http://metalarea.org/forum/style_images/flags/Poland.png)
*Format: mp3@CBR320kbps
*Size: 102MB

Tracklist:
1. The Angst Ouverture 01:49 instrumental
2. Trigger 04:02
3. Everyone 04:37
4. Filth 05:46
5. Warfare Area 04:56
6. Barbaric Justice 04:30
7. Enola Gay 04:23
8. Prophetic Sound 04:55
9. The Raven 05:11
10. Dead End 04:36
******************************
Total playing time: 44:45




Extended info
Przemysław Niezgódzki Bass
Paweł Jaroszewicz Drums
Wojciech Hoffmann Guitars
Marcin Białożyk Guitars
Jacek Zema Vocals


Technical info
(IMG:http://metalarea.org/images/spectrogram/2023_Jan/a2043db3ee67bf3f87b59a040ae0c2d9.png)
Input File: 08 - Prophetic sound.mp3
Channels : 2
Sample Rate : 44100
Precision : 16-bit
Duration : 00:04:53.00 = 12921300 samples = 21975 CDDA sectors
File Size : 11.8M
Bit Rate : 322k
Sample Encoding: MPEG audio (layer I, II or III)
Comments :
Title=Prophetic sound
Artist=Hellium
Album=One way to dead end
Tracknumber=8
Year=2022-12-25
Genre=Metal
Discnumber=1



Register


Go to the top of the page
  Insert nick Quick quote
+Quote Post
 
Start new topic
Replies (1 - 2)
post Jan 25 2023, 16:51:46
Post #2

Правь статус, ####!111
**************
Group: Металариец
Posts: 31,432
Releases: 23178
From: Г.Харьков
On Forums: 10 years 8 months
Thanks: 487792 time(s)
Ukraine


FLAC (Tracks) 319 mb
Register


Go to the top of the page
  Insert nick Quick quote
+Quote Post
post Jan 29 2023, 21:13:26
Post #3

MDM-Thrash Metal
**************
Group: Металариец
Posts: 11,539
Releases: 1612
From: Одесса
On Forums: 15 years 5 months
Thanks: 38074 time(s)
Ukraine


Сыграно неплохо, но вот истеричный вокал все портит.
Go to the top of the page
  Insert nick Quick quote
+Quote Post

Reply to this topicStart new topic
1 User(s) are reading this topic (1 Guests and 0 Anonymous Users)
0 Members:

 



- Lo-Fi Version Support form
Copyrights and abuse reports form
Time is now: 5th February 2023 - 18:40:15