Welcome Guest ( Log In | Register )

> Releases Upload / Добавление релизов

Добавить релиз тут / Click here to add release
Рекомендованные обменники / Recommended file shares

 
Reply to this topicStart new topic
> Onmyo-Za - Ryuo Doji (龍凰童子) (2023), Heavy Metal (D)
post Jan 25 2023, 03:39:55
Post #1

Правь статус, ####!111
**************
Group: Металариец
Posts: 4,808
Releases: 3238
On Forums: 12 years 2 months
Thanks: 58407 time(s)
Russian Federation


(IMG:https://metalarea.org/images/audiocovers/2023_Jan/acov_tid375736_thumb.jpg)

*Artist: Onmyo-Za
*Album: Ryuo Doji (龍凰童子)
*Year: 2023
*Genre: Heavy Metal
*Country: Japan (IMG:https://metalarea.org/forum/style_images/flags/Japan.png)
*Format: mp3@CBR320kbps
*Size: 223MB

Tracklist:
1.霓 (器楽奏) 01:45
2.龍葬 04:47
3.鳳凰の柩 03:42
4.大いなる闊歩 04:34
5.茨木童子 04:23
6.猪笹王 04:23
7.滑瓢 03:35
8.赤舌 04:09
9.月華忍法帖 05:03
10.白峯 11:23
11.迦楼羅 04:21
12.覚悟 04:45
13.両面宿儺 06:08
14.静心なく花の散るらむ 04:33
15.心悸 04:01
******************************
Total playing time: 1:11:32

(IMG:https://metalarea.org/images/youtube.png)

Technical info
(IMG:https://metalarea.org/images/spectrogram/2023_Jan/1688b2ff75e815bd3aa07a8a4a81b63f.png)
Input File: 07. Nurarihyon.mp3
Channels : 2
Sample Rate : 44100
Precision : 16-bit
Duration : 00:03:35.00 = 9481588 samples = 16125.1 CDDA sectors
File Size : 12.9M
Bit Rate : 479k
Sample Encoding: MPEG audio (layer I, II or III)
Comments :
Title=Nurarihyon
Artist=Onmyo-Za
Album=Ryuuoudouji
Tracknumber=07
Year=2023
Genre=Heavy Metal



Register


Go to the top of the page
  Insert nick Quick quote
+Quote Post

Reply to this topicStart new topic
2 User(s) are reading this topic (2 Guests and 0 Anonymous Users)
0 Members:

 



- Lo-Fi Version Support form
Copyrights and abuse reports form
Time is now: 5th February 2023 - 18:16:34