Welcome Guest ( Log In | Register )

> Releases Upload / Добавление релизов

Добавить релиз тут / Click here to add release
Рекомендованные обменники / Recommended file shares

 
Reply to this topicStart new topic
> Blitzkrieg - Inferno - The Complete Recordings Vol I: 1980-1998 [compilation] (2022), Heavy Metal (D)
post Jan 25 2023, 03:56:32
Post #1

Правь статус, ####!111
**************
Group: Металариец
Posts: 4,808
Releases: 3238
On Forums: 12 years 2 months
Thanks: 58407 time(s)
Russian Federation


(IMG:https://metalarea.org/images/audiocovers/2023_Jan/acov_tid375737_thumb.jpg)

*Artist: Blitzkrieg
*Album: Inferno - The Complete Recordings Vol I: 1980-1998 [compilation]
*Year: 2022
*Genre: Heavy Metal
*Country: United Kingdom (IMG:https://metalarea.org/forum/style_images/flags/United%20Kingdom.png)
*Format: mp3@VBR263kbps
*Size: 593MB

Tracklist:
1.A Time of Changes
2.Blitzed Alive / Unreleased Tracks
3.Unholy Trinity
4.Ten
5.The Mists of Avalon
******************************
Total playing time: 5:09:28

Extended info
Scene CD Rip


Technical info
(IMG:https://metalarea.org/images/spectrogram/2023_Jan/45c78c5d771f98b063109aeccfa1c436.png)
Input File: 202-blitzkrieg-inferno.mp3
Channels : 2
Sample Rate : 44100
Precision : 16-bit
Duration : 00:05:03.10 = 13366622 samples = 22732.4 CDDA sectors
File Size : 10.4M
Bit Rate : 275k
Sample Encoding: MPEG audio (layer I, II or III)
Comments :
Title=Inferno
Artist=Blitzkrieg
Album=Inferno The Complete Recordings Vol 1 1980-1998
Tracknumber=2/16
Year=2022-00-00
Genre=Heavy Metal
Discnumber=2/5



Register


Go to the top of the page
  Insert nick Quick quote
+Quote Post

Reply to this topicStart new topic
2 User(s) are reading this topic (2 Guests and 0 Anonymous Users)
0 Members:

 



- Lo-Fi Version Support form
Copyrights and abuse reports form
Time is now: 5th February 2023 - 18:31:47