Welcome Guest ( Log In | Register )

> Releases Upload / Добавление релизов

Добавить релиз тут / Click here to add release
Рекомендованные обменники / Recommended file shares

 
Reply to this topicStart new topic
> Lightning Strikes Across The Sky - Kall (2022), Black/Heavy Metal
post Jan 25 2023, 04:20:39
Post #1

Правь статус, ####!111
**************
Group: Металариец
Posts: 4,808
Releases: 3238
On Forums: 12 years 2 months
Thanks: 58407 time(s)
Russian Federation


(IMG:https://metalarea.org/images/audiocovers/2023_Jan/acov_tid375738_thumb.jpg)

*Artist: Lightning Strikes Across The Sky
*Album: Kall
*Year: 2022
*Genre: Black/Heavy Metal
*Country: United States (IMG:https://metalarea.org/forum/style_images/flags/United%20States.png)
*Format: mp3@CBR320kbps
*Size: 65MB

Tracklist:
1.Hellish Phosphorescence 00:35
2.In The Silence Of The Soulless Darkness 03:04
3.Groves Of The Hollow 03:08
4.The Seventh Crypt Break 03:08
5.Mysterious Crucifixion 03:00
6.Pierce 03:25
7.The Lower Origin 03:08
8.Exoteric Aura 03:25
9.Vexed 03:22
10.Thickening Twilight 01:57
******************************
Total playing time: 28:12



Technical info
(IMG:https://metalarea.org/images/spectrogram/2023_Jan/22578f24987a2c12bdcc91c177659df7.png)
Input File: 02-In the Silence of the Soulless Darkness.mp3
Channels : 2
Sample Rate : 44100
Precision : 16-bit
Duration : 00:03:05.01 = 8159029 samples = 13875.9 CDDA sectors
File Size : 7.40M
Bit Rate : 320k
Sample Encoding: MPEG audio (layer I, II or III)
Comments :
Title=In the Silence of the Soulless Darkness
Artist=Lightning Strikes Across the Sky
Album=Kall
Tracknumber=2/10
Year=2022-08-29
Genre=Black Metal



Register


Go to the top of the page
  Insert nick Quick quote
+Quote Post

Reply to this topicStart new topic
2 User(s) are reading this topic (2 Guests and 0 Anonymous Users)
0 Members:

 



- Lo-Fi Version Support form
Copyrights and abuse reports form
Time is now: 5th February 2023 - 18:45:54