Welcome Guest ( Log In | Register )

> Releases Upload / Добавление релизов

Добавить релиз тут / Click here to add release
Рекомендованные обменники / Recommended file shares

 
Reply to this topicStart new topic
> Prophecy Of Sheva - Н​е​ч​и​с​т​ы​й Во П​л​о​т​и [ep] (2023), Sludge/Doom Metal
post Jan 25 2023, 04:45:25
Post #1

Правь статус, ####!111
**************
Group: Металариец
Posts: 4,808
Releases: 3238
On Forums: 12 years 2 months
Thanks: 58410 time(s)
Russian Federation


(IMG:https://metalarea.org/images/audiocovers/2023_Jan/acov_tid375739_thumb.jpg)

*Artist: Prophecy Of Sheva
*Album: Н​е​ч​и​с​т​ы​й Во П​л​о​т​и [ep]
*Year: 2023
*Genre: Sludge/Doom Metal
*Country: Russian Federation (IMG:https://metalarea.org/forum/style_images/flags/Russian%20Federation.png)
*Format: mp3@CBR320kbps
*Size: 39MB

Tracklist:
1.Тлеющие Хозионы 04:52
2.Нечистый Во Плоти 05:10
3.В Пещере Горного Короля 06:43
******************************
Total playing time: 16:45



Technical info
(IMG:https://metalarea.org/images/spectrogram/2023_Jan/eaf1614d9a0a28bfac656aec622c2ee6.png)
Input File: 01. Тлеющие Хозионы.mp3
Channels : 2
Sample Rate : 44100
Precision : 16-bit
Duration : 00:04:52.77 = 12911289 samples = 21958 CDDA sectors
File Size : 12.1M
Bit Rate : 329k
Sample Encoding: MPEG audio (layer I, II or III)
Comments :
Title=Тлеющие Хозионы
Artist=Prophecy Of Sheva
Album=Нечистый во плоти
Tracknumber=01
Year=2023



Register


Go to the top of the page
  Insert nick Quick quote
+Quote Post

Reply to this topicStart new topic
1 User(s) are reading this topic (1 Guests and 0 Anonymous Users)
0 Members:

 



- Lo-Fi Version Support form
Copyrights and abuse reports form
Time is now: 5th February 2023 - 19:32:01